Sign Up   |   Sign In  
The Taste of ThingsResident AlienWorld's Most Scenic River JourneysEuphoriaLegend of the Lost LocketAutomationShogunBeacon 23ParishFantastic Four: Rise of the Silver SurferTenetThe BeekeeperSaturday Night LiveImmoral WomenWillowNinja KamuiScrambledS.W.A.T.FalloutGrey's AnatomyBlue BloodsRiddle of FirePacific Rim: UprisingThe War on ChildrenSugar

Announcements

03/29

2024

No

Comments

Big Mood S01E03 Deeper 1080p STAN WEB-DL DDP5 1 H 264-FLUX
[RR/NF/CU]
Size: 1.1GB mkv H264 (HIGH) / EAC3  HD  1920x1080

Big Mood
File Information
[img]http://lookpic.com/cdn/i2/t/0329202420151893-1.jpg[/img]
[img]http://lookpic.com/cdn/i2/t/0329202420151893-2.jpg[/img]
[img]http://lookpic.com/cdn/i2/t/0329202420151893-3.jpg[/img]

General
Unique ID                                : 262838400094485332011568075877861557680 (0xC5BCD5A39B2624DF1E794C04673405B0)
Complete name                            : Big Mood S01E03 Deeper 1080p STAN WEB-DL DDP5 1 H 264-FLUX.mkv
Format                                   : Matroska
Format version                           : Version 4
File size                                : 1.09 GiB
Duration                                 : 26 min 2 s
Overall bit rate                         : 5 976 kb/s
Frame rate                               : 25.000 FPS
Writing application                      : mkvmerge v81.0 ('Milliontown') 64-bit
Writing library                          : libebml v1.4.4 + libmatroska v1.7.1

Video
ID                                       : 1
Format                                   : AVC
Format/Info                              : Advanced Video Codec
Format profile                           : High@L4
Format settings                          : CABAC / 4 Ref Frames
Format settings, CABAC                   : Yes
Format settings, Reference frames        : 4 frames
Codec ID                                 : V_MPEG4/ISO/AVC
Duration                                 : 26 min 2 s
Bit rate                                 : 5 589 kb/s
Width                                    : 1 920 pixels
Height                                   : 1 080 pixels
Display aspect ratio                     : 16:9
Frame rate mode                          : Constant
Frame rate                               : 25.000 FPS
Color space                              : YUV
Chroma subsampling                       : 4:2:0
Bit depth                                : 8 bits
Scan type                                : Progressive
Bits/(Pixel*Frame)                       : 0.108
Stream size                              : 1.02 GiB (94%)
Language                                 : English
Default                                  : Yes
Forced                                   : No
Color range                              : Limited
Color primaries                          : BT.709
Transfer characteristics                 : BT.709
Matrix coefficients                      : BT.709

Audio
ID                                       : 2
Format                                   : E-AC-3
Format/Info                              : Enhanced AC-3
Commercial name                          : Dolby Digital Plus
Codec ID                                 : A_EAC3
Duration                                 : 26 min 2 s
Bit rate mode                            : Constant
Bit rate                                 : 384 kb/s
Channel(s)                               : 6 channels
Channel layout                           : L R C LFE Ls Rs
Sampling rate                            : 48.0 kHz
Frame rate                               : 31.250 FPS (1536 SPF)
Compression mode                         : Lossy
Stream size                              : 71.5 MiB (6%)
Language                                 : English
Service kind                             : Complete Main
Default                                  : Yes
Forced                                   : No

Text #1
ID                                       : 3
Format                                   : UTF-8
Codec ID                                 : S_TEXT/UTF8
Codec ID/Info                            : UTF-8 Plain Text
Duration                                 : 25 min 51 s
Bit rate                                 : 85 b/s
Frame rate                               : 0.280 FPS
Count of elements                        : 435
Stream size                              : 16.2 KiB (0%)
Language                                 : English
Default                                  : No
Forced                                   : No

Text #2
ID                                       : 4
Format                                   : UTF-8
Codec ID                                 : S_TEXT/UTF8
Codec ID/Info                            : UTF-8 Plain Text
Duration                                 : 25 min 51 s
Bit rate                                 : 91 b/s
Frame rate                               : 0.307 FPS
Count of elements                        : 476
Stream size                              : 17.4 KiB (0%)
Title                                    : SDH
Language                                 : English
Default                                  : No
Forced                                   : No

Menu
00:25:33.000                             : en:Credits



Download
File Container: MKV
Video/Audio Codec: H264 (HIGH) EAC3
Video Resolution: 1920x1080
Please Login to post a comment.
If you don't have any account, please Register.
  • Subscribe my Feeds
  • Facebook
Encoding Queue:  x264  x265

Latest Episodes

Popular Movies and TV Shows

  • The Taste of Things
  • Resident Alien
  • World's Most Scenic River Journeys
  • Euphoria
  • Legend of the Lost Locket
  • Automation
  • Shogun
  • Beacon 23
  • Parish
  • Fantastic Four: Rise of the Silver Surfer
  • Tenet
  • The Beekeeper
  • Saturday Night Live
  • Immoral Women
  • Willow
  • Ninja Kamui
  • Scrambled
  • S.W.A.T.
  • Fallout
  • Grey's Anatomy
  • Blue Bloods
  • Riddle of Fire
  • Pacific Rim: Uprising
  • The War on Children
  • Sugar

Recent Comments

  • mentalityx:

    Rad bloke

  • DownloadHostInspector:

    so far these RMTeam uploads always have a working link. DownloadHostInspector approved!

  • DownloadHostInspector:

    ah yes, this upload has a host that works. clicknupload. DownloadHostInspector approved!

  • DownloadHostInspector: Why are all the download hosts trash? none of them let you download it
  • Qua4ratic:

    clicknupload link plz

  • ppoo:

    Please, can you add "Real Time with Bill Maher S22E11" ??

  • theahtisham:

    Kindly upload Ep. 3 and 4 as well.

  • Kudzu: Update on sound issue, File's codec info says stereo but is only a the left channel If I switch i...
  • Admin:

    kang
    Getting error while encoding, sorry

Archives