Sign Up   |   Sign In  
ShogunNCISImmaculateNCIS: Hawai'iSweet DreamsThe Crow: SalvationThe NeighborhoodBob Hearts AbisholaAll AmericanDune: Part TwoThe 100th: Billy Joel at Madison Square Garden - The Greatest Arena Run of All TimeDangerous WatersThe SympathizerFamily GuyTrackerStill: A Michael J. Fox MovieKiller Fortune TellerMoney TalksThe Great NorthHundreds of BeaversModel HouseWhen Calls the HeartSullivan's CrossingAbba: How They Won EurovisionFallout

Announcements

03/29

2024

No

Comments

Chicago Med S09E08 A Penny for Your Thoughts Dollar for Your Dreams REPACK 1080p AMZN WEB-DL DDP5 1 H 264-FLUX
[RR/NF]
Size: 2.9GB mkv H264 (HIGH) / EAC3  HD  1920x1080

Chicago Med
File Information
[img]http://lookpic.com/cdn/i2/t/0329202419195448-1.jpg[/img]
[img]http://lookpic.com/cdn/i2/t/0329202419195448-2.jpg[/img]
[img]http://lookpic.com/cdn/i2/t/0329202419195448-3.jpg[/img]

General
Unique ID                                : 33134255238930321254825280747839753191 (0x18ED6CE94E42BFDEDBD5FC5844CD0BE7)
Complete name                            : Chicago Med S09E08 A Penny for Your Thoughts Dollar for Your Dreams REPACK 1080p AMZN WEB-DL DDP5 1 H 264-FLUX.mkv
Format                                   : Matroska
Format version                           : Version 4
File size                                : 2.93 GiB
Duration                                 : 41 min 39 s
Overall bit rate                         : 10.1 Mb/s
Frame rate                               : 23.976 FPS
Writing application                      : mkvmerge v82.0 ('I'm The President') 64-bit
Writing library                          : libebml v1.4.5 + libmatroska v1.7.1

Video
ID                                       : 1
Format                                   : AVC
Format/Info                              : Advanced Video Codec
Format profile                           : High@L4
Format settings                          : CABAC / 4 Ref Frames
Format settings, CABAC                   : Yes
Format settings, Reference frames        : 4 frames
Codec ID                                 : V_MPEG4/ISO/AVC
Duration                                 : 41 min 39 s
Bit rate mode                            : Constant
Bit rate                                 : 9 435 kb/s
Nominal bit rate                         : 10 000 kb/s
Width                                    : 1 920 pixels
Height                                   : 1 080 pixels
Display aspect ratio                     : 16:9
Frame rate mode                          : Constant
Frame rate                               : 23.976 (24000/1001) FPS
Color space                              : YUV
Chroma subsampling                       : 4:2:0
Bit depth                                : 8 bits
Scan type                                : Progressive
Bits/(Pixel*Frame)                       : 0.190
Stream size                              : 2.75 GiB (94%)
Language                                 : English (US)
Default                                  : Yes
Forced                                   : No
Color range                              : Limited
Color primaries                          : BT.709
Transfer characteristics                 : BT.709
Matrix coefficients                      : BT.709

Audio
ID                                       : 2
Format                                   : E-AC-3
Format/Info                              : Enhanced AC-3
Commercial name                          : Dolby Digital Plus
Codec ID                                 : A_EAC3
Duration                                 : 41 min 39 s
Bit rate mode                            : Constant
Bit rate                                 : 640 kb/s
Channel(s)                               : 6 channels
Channel layout                           : L R C LFE Ls Rs
Sampling rate                            : 48.0 kHz
Frame rate                               : 31.250 FPS (1536 SPF)
Compression mode                         : Lossy
Stream size                              : 191 MiB (6%)
Language                                 : English
Service kind                             : Complete Main
Default                                  : Yes
Forced                                   : No

Text #1
ID                                       : 3
Format                                   : UTF-8
Codec ID                                 : S_TEXT/UTF8
Codec ID/Info                            : UTF-8 Plain Text
Duration                                 : 40 min 42 s
Bit rate                                 : 99 b/s
Frame rate                               : 0.389 FPS
Count of elements                        : 949
Stream size                              : 29.7 KiB (0%)
Language                                 : English (US)
Default                                  : No
Forced                                   : No

Text #2
ID                                       : 4
Format                                   : UTF-8
Codec ID                                 : S_TEXT/UTF8
Codec ID/Info                            : UTF-8 Plain Text
Duration                                 : 41 min 31 s
Bit rate                                 : 100 b/s
Frame rate                               : 0.402 FPS
Count of elements                        : 1002
Stream size                              : 30.6 KiB (0%)
Title                                    : SDH
Language                                 : English (US)
Default                                  : No
Forced                                   : No

Menu
00:00:00.000                             : en:Scene 1
00:40:56.000                             : en:End Credits



Download
File Container: MKV
Video/Audio Codec: H264 (HIGH) EAC3
Video Resolution: 1920x1080
Please Login to post a comment.
If you don't have any account, please Register.
  • Subscribe my Feeds
  • Facebook
Encoding Queue:  x264  x265

Latest Episodes

Popular Movies and TV Shows

  • Shogun
  • NCIS
  • Immaculate
  • NCIS: Hawai'i
  • Sweet Dreams
  • The Crow: Salvation
  • The Neighborhood
  • Bob Hearts Abishola
  • All American
  • Dune: Part Two
  • The 100th: Billy Joel at Madison Square Garden - The Greatest Arena Run of All Time
  • Dangerous Waters
  • The Sympathizer
  • Family Guy
  • Tracker
  • Still: A Michael J. Fox Movie
  • Killer Fortune Teller
  • Money Talks
  • The Great North
  • Hundreds of Beavers
  • Model House
  • When Calls the Heart
  • Sullivan's Crossing
  • Abba: How They Won Eurovision
  • Fallout

Recent Comments

  • kellym2: Why am I getting "Server is in maintenance mode" on some episodes of a series and not on o...
  • Bud:

    Are you ever going to put up Thursday's episode with Liev Schreiber?

  • alp-engin:

    When will that maintenance be over? Please...

  • mentalityx:

    Rad bloke

  • DownloadHostInspector:

    so far these RMTeam uploads always have a working link. DownloadHostInspector approved!

  • DownloadHostInspector:

    ah yes, this upload has a host that works. clicknupload. DownloadHostInspector approved!

  • DownloadHostInspector: Why are all the download hosts trash? none of them let you download it
  • Qua4ratic:

    clicknupload link plz

  • ppoo:

    Please, can you add "Real Time with Bill Maher S22E11" ??

  • theahtisham:

    Kindly upload Ep. 3 and 4 as well.

Archives