Sign Up   |   Sign In  
World's Most Scenic River JourneysGriseldaThe Taste of ThingsResident AlienChamkilaBig VoiceShogunSaturday Night LiveNinja KamuiLegend of the Lost LocketFantastic Four: Rise of the Silver SurferThe BeekeeperBeacon 23ParishImmoral WomenWillowS.W.A.T.ScrambledFalloutGrey's AnatomyBlue BloodsRiddle of FirePacific Rim: UprisingThe War on ChildrenSugar

Announcements

03/29

2024

No

Comments

Fraggle Rock Back to the Rock S02E12 Letting Go 1080p ATVP WEB-DL DDP5 1 Atmos H 264-FLUX
[RR/NF/CU]
Size: 1.9GB mkv H264 (HIGH) / EAC3  HD  1920x1080

Fraggle Rock: Back to the Rock
File Information
[img]http://lookpic.com/cdn/i2/t/0329202407400589-1.jpg[/img]
[img]http://lookpic.com/cdn/i2/t/0329202407400589-2.jpg[/img]
[img]http://lookpic.com/cdn/i2/t/0329202407400589-3.jpg[/img]

General
Unique ID                                : 79828006633216406023081994895761508083 (0x3C0E509931D71A68BBAD6CBE76FE86F3)
Complete name                            : Fraggle Rock Back to the Rock S02E12 Letting Go 1080p ATVP WEB-DL DDP5 1 Atmos H 264-FLUX.mkv
Format                                   : Matroska
Format version                           : Version 4
File size                                : 1.89 GiB
Duration                                 : 25 min 50 s
Overall bit rate                         : 10.5 Mb/s
Frame rate                               : 23.976 FPS
Writing application                      : mkvmerge v81.0 ('Milliontown') 64-bit
Writing library                          : libebml v1.4.4 + libmatroska v1.7.1

Video
ID                                       : 1
Format                                   : AVC
Format/Info                              : Advanced Video Codec
Format profile                           : High@L4
Format settings                          : CABAC / 4 Ref Frames
Format settings, CABAC                   : Yes
Format settings, Reference frames        : 4 frames
Codec ID                                 : V_MPEG4/ISO/AVC
Duration                                 : 25 min 50 s
Bit rate                                 : 9 710 kb/s
Width                                    : 1 920 pixels
Height                                   : 1 080 pixels
Display aspect ratio                     : 16:9
Frame rate mode                          : Constant
Frame rate                               : 23.976 (24000/1001) FPS
Color space                              : YUV
Chroma subsampling                       : 4:2:0
Bit depth                                : 8 bits
Scan type                                : Progressive
Bits/(Pixel*Frame)                       : 0.195
Stream size                              : 1.75 GiB (93%)
Language                                 : English
Default                                  : Yes
Forced                                   : No
Color range                              : Limited
Color primaries                          : BT.709
Transfer characteristics                 : BT.709
Matrix coefficients                      : BT.709

Audio
ID                                       : 2
Format                                   : E-AC-3 JOC
Format/Info                              : Enhanced AC-3 with Joint Object Coding
Commercial name                          : Dolby Digital Plus with Dolby Atmos
Codec ID                                 : A_EAC3
Duration                                 : 25 min 50 s
Bit rate mode                            : Constant
Bit rate                                 : 768 kb/s
Channel(s)                               : 6 channels
Channel layout                           : L R C LFE Ls Rs
Sampling rate                            : 48.0 kHz
Frame rate                               : 31.250 FPS (1536 SPF)
Compression mode                         : Lossy
Stream size                              : 142 MiB (7%)
Language                                 : English
Service kind                             : Complete Main
Default                                  : Yes
Forced                                   : No
Complexity index                         : 16
Number of dynamic objects                : 15
Bed channel count                        : 1 channel
Bed channel configuration                : LFE

Text #1
ID                                       : 3
Format                                   : UTF-8
Codec ID                                 : S_TEXT/UTF8
Codec ID/Info                            : UTF-8 Plain Text
Duration                                 : 23 min 45 s
Bit rate                                 : 90 b/s
Frame rate                               : 0.316 FPS
Count of elements                        : 451
Stream size                              : 15.8 KiB (0%)
Language                                 : English
Default                                  : No
Forced                                   : No

Text #2
ID                                       : 4
Format                                   : UTF-8
Codec ID                                 : S_TEXT/UTF8
Codec ID/Info                            : UTF-8 Plain Text
Duration                                 : 24 min 7 s
Bit rate                                 : 115 b/s
Frame rate                               : 0.363 FPS
Count of elements                        : 526
Stream size                              : 20.3 KiB (0%)
Title                                    : SDH
Language                                 : English
Default                                  : No
Forced                                   : No

Text #3
ID                                       : 5
Format                                   : UTF-8
Codec ID                                 : S_TEXT/UTF8
Codec ID/Info                            : UTF-8 Plain Text
Duration                                 : 25 min 15 s
Bit rate                                 : 128 b/s
Frame rate                               : 0.298 FPS
Count of elements                        : 452
Stream size                              : 23.8 KiB (0%)
Language                                 : Arabic
Default                                  : No
Forced                                   : No

Text #4
ID                                       : 6
Format                                   : UTF-8
Codec ID                                 : S_TEXT/UTF8
Codec ID/Info                            : UTF-8 Plain Text
Duration                                 : 25 min 15 s
Bit rate                                 : 113 b/s
Frame rate                               : 0.234 FPS
Count of elements                        : 355
Stream size                              : 21.1 KiB (0%)
Language                                 : Bulgarian
Default                                  : No
Forced                                   : No

Text #5
ID                                       : 7
Format                                   : UTF-8
Codec ID                                 : S_TEXT/UTF8
Codec ID/Info                            : UTF-8 Plain Text
Duration                                 : 25 min 15 s
Bit rate                                 : 70 b/s
Frame rate                               : 0.299 FPS
Count of elements                        : 453
Stream size                              : 13.1 KiB (0%)
Title                                    : Simplified
Language                                 : Chinese (Simplified)
Default                                  : No
Forced                                   : No

Text #6
ID                                       : 8
Format                                   : UTF-8
Codec ID                                 : S_TEXT/UTF8
Codec ID/Info                            : UTF-8 Plain Text
Duration                                 : 25 min 15 s
Bit rate                                 : 73 b/s
Frame rate                               : 0.298 FPS
Count of elements                        : 452
Stream size                              : 13.6 KiB (0%)
Title                                    : Traditional
Language                                 : Chinese (Traditional)
Default                                  : No
Forced                                   : No

Text #7
ID                                       : 9
Format                                   : UTF-8
Codec ID                                 : S_TEXT/UTF8
Codec ID/Info                            : UTF-8 Plain Text
Duration                                 : 25 min 15 s
Bit rate                                 : 72 b/s
Frame rate                               : 0.266 FPS
Count of elements                        : 404
Stream size                              : 13.5 KiB (0%)
Language                                 : Czech
Default                                  : No
Forced                                   : No

Text #8
ID                                       : 10
Format                                   : UTF-8
Codec ID                                 : S_TEXT/UTF8
Codec ID/Info                            : UTF-8 Plain Text
Duration                                 : 25 min 16 s
Bit rate                                 : 80 b/s
Frame rate                               : 0.276 FPS
Count of elements                        : 418
Stream size                              : 14.9 KiB (0%)
Language                                 : Danish
Default                                  : No
Forced                                   : No

Text #9
ID                                       : 11
Format                                   : UTF-8
Codec ID                                 : S_TEXT/UTF8
Codec ID/Info                            : UTF-8 Plain Text
Duration                                 : 24 min 5 s
Bit rate                                 : 92 b/s
Frame rate                               : 0.304 FPS
Count of elements                        : 440
Stream size                              : 16.3 KiB (0%)
Language                                 : German
Default                                  : No
Forced                                   : No

Text #10
ID                                       : 12
Format                                   : UTF-8
Codec ID                                 : S_TEXT/UTF8
Codec ID/Info                            : UTF-8 Plain Text
Duration                                 : 25 min 15 s
Bit rate                                 : 124 b/s
Frame rate                               : 0.274 FPS
Count of elements                        : 416
Stream size                              : 23.1 KiB (0%)
Language                                 : Greek
Default                                  : No
Forced                                   : No

Text #11
ID                                       : 13
Format                                   : UTF-8
Codec ID                                 : S_TEXT/UTF8
Codec ID/Info                            : UTF-8 Plain Text
Duration                                 : 25 min 15 s
Bit rate                                 : 83 b/s
Frame rate                               : 0.297 FPS
Count of elements                        : 451
Stream size                              : 15.5 KiB (0%)
Title                                    : Latin American
Language                                 : Spanish (Latin America)
Default                                  : No
Forced                                   : No

Text #12
ID                                       : 14
Format                                   : UTF-8
Codec ID                                 : S_TEXT/UTF8
Codec ID/Info                            : UTF-8 Plain Text
Duration                                 : 25 min 15 s
Bit rate                                 : 87 b/s
Frame rate                               : 0.296 FPS
Count of elements                        : 449
Stream size                              : 16.3 KiB (0%)
Language                                 : Spanish (ES)
Default                                  : No
Forced                                   : No

Text #13
ID                                       : 15
Format                                   : UTF-8
Codec ID                                 : S_TEXT/UTF8
Codec ID/Info                            : UTF-8 Plain Text
Duration                                 : 25 min 15 s
Bit rate                                 : 72 b/s
Frame rate                               : 0.257 FPS
Count of elements                        : 389
Stream size                              : 13.4 KiB (0%)
Language                                 : Estonian
Default                                  : No
Forced                                   : No

Text #14
ID                                       : 16
Format                                   : UTF-8
Codec ID                                 : S_TEXT/UTF8
Codec ID/Info                            : UTF-8 Plain Text
Duration                                 : 25 min 13 s
Bit rate                                 : 75 b/s
Frame rate                               : 0.265 FPS
Count of elements                        : 401
Stream size                              : 14.0 KiB (0%)
Language                                 : Finnish
Default                                  : No
Forced                                   : No

Text #15
ID                                       : 17
Format                                   : UTF-8
Codec ID                                 : S_TEXT/UTF8
Codec ID/Info                            : UTF-8 Plain Text
Duration                                 : 25 min 13 s
Bit rate                                 : 77 b/s
Frame rate                               : 0.291 FPS
Count of elements                        : 441
Stream size                              : 14.3 KiB (0%)
Title                                    : Canadian
Language                                 : French (CA)
Default                                  : No
Forced                                   : No

Text #16
ID                                       : 18
Format                                   : UTF-8
Codec ID                                 : S_TEXT/UTF8
Codec ID/Info                            : UTF-8 Plain Text
Duration                                 : 25 min 13 s
Bit rate                                 : 77 b/s
Frame rate                               : 0.291 FPS
Count of elements                        : 441
Stream size                              : 14.3 KiB (0%)
Language                                 : French (FR)
Default                                  : No
Forced                                   : No

Text #17
ID                                       : 19
Format                                   : UTF-8
Codec ID                                 : S_TEXT/UTF8
Codec ID/Info                            : UTF-8 Plain Text
Duration                                 : 25 min 15 s
Bit rate                                 : 120 b/s
Frame rate                               : 0.298 FPS
Count of elements                        : 452
Stream size                              : 22.2 KiB (0%)
Language                                 : Hebrew
Default                                  : No
Forced                                   : No

Text #18
ID                                       : 20
Format                                   : UTF-8
Codec ID                                 : S_TEXT/UTF8
Codec ID/Info                            : UTF-8 Plain Text
Duration                                 : 25 min 15 s
Bit rate                                 : 225 b/s
Frame rate                               : 0.299 FPS
Count of elements                        : 453
Stream size                              : 41.8 KiB (0%)
Language                                 : Hindi
Default                                  : No
Forced                                   : No

Text #19
ID                                       : 21
Format                                   : UTF-8
Codec ID                                 : S_TEXT/UTF8
Codec ID/Info                            : UTF-8 Plain Text
Duration                                 : 25 min 15 s
Bit rate                                 : 82 b/s
Frame rate                               : 0.299 FPS
Count of elements                        : 453
Stream size                              : 15.3 KiB (0%)
Language                                 : Hungarian
Default                                  : No
Forced                                   : No

Text #20
ID                                       : 22
Format                                   : UTF-8
Codec ID                                 : S_TEXT/UTF8
Codec ID/Info                            : UTF-8 Plain Text
Duration                                 : 25 min 15 s
Bit rate                                 : 90 b/s
Frame rate                               : 0.298 FPS
Count of elements                        : 452
Stream size                              : 16.7 KiB (0%)
Language                                 : Indonesian
Default                                  : No
Forced                                   : No

Text #21
ID                                       : 23
Format                                   : UTF-8
Codec ID                                 : S_TEXT/UTF8
Codec ID/Info                            : UTF-8 Plain Text
Duration                                 : 25 min 2 s
Bit rate                                 : 92 b/s
Frame rate                               : 0.278 FPS
Count of elements                        : 418
Stream size                              : 17.0 KiB (0%)
Language                                 : Italian
Default                                  : No
Forced                                   : No

Text #22
ID                                       : 24
Format                                   : UTF-8
Codec ID                                 : S_TEXT/UTF8
Codec ID/Info                            : UTF-8 Plain Text
Duration                                 : 25 min 15 s
Bit rate                                 : 67 b/s
Frame rate                               : 0.282 FPS
Count of elements                        : 428
Stream size                              : 12.4 KiB (0%)
Language                                 : Japanese
Default                                  : No
Forced                                   : No

Text #23
ID                                       : 25
Format                                   : UTF-8
Codec ID                                 : S_TEXT/UTF8
Codec ID/Info                            : UTF-8 Plain Text
Duration                                 : 25 min 15 s
Bit rate                                 : 86 b/s
Frame rate                               : 0.298 FPS
Count of elements                        : 452
Stream size                              : 16.1 KiB (0%)
Language                                 : Korean
Default                                  : No
Forced                                   : No

Text #24
ID                                       : 26
Format                                   : UTF-8
Codec ID                                 : S_TEXT/UTF8
Codec ID/Info                            : UTF-8 Plain Text
Duration                                 : 25 min 15 s
Bit rate                                 : 80 b/s
Frame rate                               : 0.297 FPS
Count of elements                        : 451
Stream size                              : 14.9 KiB (0%)
Language                                 : Lithuanian
Default                                  : No
Forced                                   : No

Text #25
ID                                       : 27
Format                                   : UTF-8
Codec ID                                 : S_TEXT/UTF8
Codec ID/Info                            : UTF-8 Plain Text
Duration                                 : 25 min 15 s
Bit rate                                 : 79 b/s
Frame rate                               : 0.287 FPS
Count of elements                        : 435
Stream size                              : 14.8 KiB (0%)
Language                                 : Latvian
Default                                  : No
Forced                                   : No

Text #26
ID                                       : 28
Format                                   : UTF-8
Codec ID                                 : S_TEXT/UTF8
Codec ID/Info                            : UTF-8 Plain Text
Duration                                 : 25 min 15 s
Bit rate                                 : 86 b/s
Frame rate                               : 0.297 FPS
Count of elements                        : 451
Stream size                              : 16.0 KiB (0%)
Language                                 : Malay
Default                                  : No
Forced                                   : No

Text #27
ID                                       : 29
Format                                   : UTF-8
Codec ID                                 : S_TEXT/UTF8
Codec ID/Info                            : UTF-8 Plain Text
Duration                                 : 25 min 15 s
Bit rate                                 : 81 b/s
Frame rate                               : 0.214 FPS
Count of elements                        : 324
Stream size                              : 15.0 KiB (0%)
Language                                 : Dutch
Default                                  : No
Forced                                   : No

Text #28
ID                                       : 30
Format                                   : UTF-8
Codec ID                                 : S_TEXT/UTF8
Codec ID/Info                            : UTF-8 Plain Text
Duration                                 : 25 min 15 s
Bit rate                                 : 74 b/s
Frame rate                               : 0.214 FPS
Count of elements                        : 325
Stream size                              : 13.7 KiB (0%)
Title                                    : Flemish
Language                                 : Dutch (BE)
Default                                  : No
Forced                                   : No

Text #29
ID                                       : 31
Format                                   : UTF-8
Codec ID                                 : S_TEXT/UTF8
Codec ID/Info                            : UTF-8 Plain Text
Duration                                 : 25 min 15 s
Bit rate                                 : 72 b/s
Frame rate                               : 0.245 FPS
Count of elements                        : 371
Stream size                              : 13.4 KiB (0%)
Language                                 : Norwegian
Default                                  : No
Forced                                   : No

Text #30
ID                                       : 32
Format                                   : UTF-8
Codec ID                                 : S_TEXT/UTF8
Codec ID/Info                            : UTF-8 Plain Text
Duration                                 : 23 min 45 s
Bit rate                                 : 82 b/s
Frame rate                               : 0.280 FPS
Count of elements                        : 399
Stream size                              : 14.4 KiB (0%)
Language                                 : Polish
Default                                  : No
Forced                                   : No

Text #31
ID                                       : 33
Format                                   : UTF-8
Codec ID                                 : S_TEXT/UTF8
Codec ID/Info                            : UTF-8 Plain Text
Duration                                 : 25 min 15 s
Bit rate                                 : 73 b/s
Frame rate                               : 0.284 FPS
Count of elements                        : 430
Stream size                              : 13.7 KiB (0%)
Language                                 : Portuguese
Default                                  : No
Forced                                   : No

Text #32
ID                                       : 34
Format                                   : UTF-8
Codec ID                                 : S_TEXT/UTF8
Codec ID/Info                            : UTF-8 Plain Text
Duration                                 : 25 min 15 s
Bit rate                                 : 71 b/s
Frame rate                               : 0.274 FPS
Count of elements                        : 416
Stream size                              : 13.2 KiB (0%)
Title                                    : Brazilian
Language                                 : Portuguese (BR)
Default                                  : No
Forced                                   : No

Text #33
ID                                       : 35
Format                                   : UTF-8
Codec ID                                 : S_TEXT/UTF8
Codec ID/Info                            : UTF-8 Plain Text
Duration                                 : 25 min 15 s
Bit rate                                 : 126 b/s
Frame rate                               : 0.299 FPS
Count of elements                        : 454
Stream size                              : 23.4 KiB (0%)
Language                                 : Russian
Default                                  : No
Forced                                   : No

Text #34
ID                                       : 36
Format                                   : UTF-8
Codec ID                                 : S_TEXT/UTF8
Codec ID/Info                            : UTF-8 Plain Text
Duration                                 : 25 min 15 s
Bit rate                                 : 75 b/s
Frame rate                               : 0.287 FPS
Count of elements                        : 435
Stream size                              : 14.1 KiB (0%)
Language                                 : Slovak
Default                                  : No
Forced                                   : No

Text #35
ID                                       : 37
Format                                   : UTF-8
Codec ID                                 : S_TEXT/UTF8
Codec ID/Info                            : UTF-8 Plain Text
Duration                                 : 25 min 15 s
Bit rate                                 : 66 b/s
Frame rate                               : 0.242 FPS
Count of elements                        : 367
Stream size                              : 12.3 KiB (0%)
Language                                 : Slovenian
Default                                  : No
Forced                                   : No

Text #36
ID                                       : 38
Format                                   : UTF-8
Codec ID                                 : S_TEXT/UTF8
Codec ID/Info                            : UTF-8 Plain Text
Duration                                 : 25 min 13 s
Bit rate                                 : 78 b/s
Frame rate                               : 0.240 FPS
Count of elements                        : 363
Stream size                              : 14.5 KiB (0%)
Language                                 : Swedish
Default                                  : No
Forced                                   : No

Text #37
ID                                       : 39
Format                                   : UTF-8
Codec ID                                 : S_TEXT/UTF8
Codec ID/Info                            : UTF-8 Plain Text
Duration                                 : 25 min 15 s
Bit rate                                 : 254 b/s
Frame rate                               : 0.298 FPS
Count of elements                        : 452
Stream size                              : 47.1 KiB (0%)
Language                                 : Tamil
Default                                  : No
Forced                                   : No

Text #38
ID                                       : 40
Format                                   : UTF-8
Codec ID                                 : S_TEXT/UTF8
Codec ID/Info                            : UTF-8 Plain Text
Duration                                 : 25 min 15 s
Bit rate                                 : 240 b/s
Frame rate                               : 0.298 FPS
Count of elements                        : 452
Stream size                              : 44.6 KiB (0%)
Language                                 : Telugu
Default                                  : No
Forced                                   : No

Text #39
ID                                       : 41
Format                                   : UTF-8
Codec ID                                 : S_TEXT/UTF8
Codec ID/Info                            : UTF-8 Plain Text
Duration                                 : 25 min 15 s
Bit rate                                 : 196 b/s
Frame rate                               : 0.298 FPS
Count of elements                        : 452
Stream size                              : 36.3 KiB (0%)
Language                                 : Thai
Default                                  : No
Forced                                   : No

Text #40
ID                                       : 42
Format                                   : UTF-8
Codec ID                                 : S_TEXT/UTF8
Codec ID/Info                            : UTF-8 Plain Text
Duration                                 : 25 min 15 s
Bit rate                                 : 82 b/s
Frame rate                               : 0.288 FPS
Count of elements                        : 437
Stream size                              : 15.2 KiB (0%)
Language                                 : Turkish
Default                                  : No
Forced                                   : No

Text #41
ID                                       : 43
Format                                   : UTF-8
Codec ID                                 : S_TEXT/UTF8
Codec ID/Info                            : UTF-8 Plain Text
Duration                                 : 25 min 15 s
Bit rate                                 : 121 b/s
Frame rate                               : 0.299 FPS
Count of elements                        : 453
Stream size                              : 22.5 KiB (0%)
Language                                 : Ukrainian
Default                                  : No
Forced                                   : No

Text #42
ID                                       : 44
Format                                   : UTF-8
Codec ID                                 : S_TEXT/UTF8
Codec ID/Info                            : UTF-8 Plain Text
Duration                                 : 25 min 15 s
Bit rate                                 : 101 b/s
Frame rate                               : 0.299 FPS
Count of elements                        : 453
Stream size                              : 18.8 KiB (0%)
Language                                 : Vietnamese
Default                                  : No
Forced                                   : No

Text #43
ID                                       : 45
Format                                   : UTF-8
Codec ID                                 : S_TEXT/UTF8
Codec ID/Info                            : UTF-8 Plain Text
Duration                                 : 25 min 15 s
Bit rate                                 : 67 b/s
Frame rate                               : 0.299 FPS
Count of elements                        : 453
Stream size                              : 12.5 KiB (0%)
Title                                    : Traditional
Language                                 : Cantonese (Hant)
Default                                  : No
Forced                                   : No

Menu
00:00:00.000                             : en:Studio Logo
00:00:15.963                             : en:Intro
00:01:16.963                             : en:Scene 01
00:24:17.125                             : en:Credits



Download
File Container: MKV
Video/Audio Codec: H264 (HIGH) EAC3
Video Resolution: 1920x1080
Please Login to post a comment.
If you don't have any account, please Register.
  • Subscribe my Feeds
  • Facebook
Encoding Queue:  x264  x265

Latest Episodes

Popular Movies and TV Shows

  • World's Most Scenic River Journeys
  • Griselda
  • The Taste of Things
  • Resident Alien
  • Chamkila
  • Big Voice
  • Shogun
  • Saturday Night Live
  • Ninja Kamui
  • Legend of the Lost Locket
  • Fantastic Four: Rise of the Silver Surfer
  • The Beekeeper
  • Beacon 23
  • Parish
  • Immoral Women
  • Willow
  • S.W.A.T.
  • Scrambled
  • Fallout
  • Grey's Anatomy
  • Blue Bloods
  • Riddle of Fire
  • Pacific Rim: Uprising
  • The War on Children
  • Sugar

Recent Comments

  • mentalityx:

    Rad bloke

  • DownloadHostInspector:

    so far these RMTeam uploads always have a working link. DownloadHostInspector approved!

  • DownloadHostInspector:

    ah yes, this upload has a host that works. clicknupload. DownloadHostInspector approved!

  • DownloadHostInspector: Why are all the download hosts trash? none of them let you download it
  • Qua4ratic:

    clicknupload link plz

  • ppoo:

    Please, can you add "Real Time with Bill Maher S22E11" ??

  • theahtisham:

    Kindly upload Ep. 3 and 4 as well.

  • Kudzu: Update on sound issue, File's codec info says stereo but is only a the left channel If I switch i...
  • Admin:

    kang
    Getting error while encoding, sorry

Archives