Sign Up   |   Sign In  
ShogunNCISImmaculateNCIS: Hawai'iSweet DreamsThe Crow: SalvationThe NeighborhoodBob Hearts AbisholaExpedition XDune: Part TwoThe 100th: Billy Joel at Madison Square Garden - The Greatest Arena Run of All TimeSoulBoyThe SympathizerFamily GuyTrackerStill: A Michael J. Fox MovieHundreds of BeaversKiller Fortune TellerThe Great NorthModel HouseWhen Calls the HeartSullivan's CrossingAbba: How They Won EurovisionThe Batman vs. DraculaFallout

Announcements

03/31

2024

No

Comments

Letterkenny S03E01 Sled Shack 1080p HULU WEB-DL AAC2 0 H 264-NTb
[RR/NF/CU]
Size: 910MB mkv H264 (HIGH) / AAC (HE-AAC)  HD  1920x1080

Letterkenny
File Information
[img]http://lookpic.com/cdn/i2/t/0331202419451452-1.jpg[/img]
[img]http://lookpic.com/cdn/i2/t/0331202419451452-2.jpg[/img]
[img]http://lookpic.com/cdn/i2/t/0331202419451452-3.jpg[/img]

General
Unique ID                                : 22662621037016068791571896037437196611 (0x110CA97BEF6015431F0C0634B061C943)
Complete name                            : Letterkenny S03E01 Sled Shack 1080p HULU WEB-DL AAC2 0 H 264-NTb.mkv
Format                                   : Matroska
Format version                           : Version 4
File size                                : 910 MiB
Duration                                 : 25 min 15 s
Overall bit rate                         : 5 039 kb/s
Frame rate                               : 23.976 FPS
Encoded date                             : 2018-12-27 18:10:45 UTC
Writing application                      : mkvmerge v28.2.0 ('The Awakening') 64-bit
Writing library                          : libebml v1.3.6 + libmatroska v1.4.9

Video
ID                                       : 1
Format                                   : AVC
Format/Info                              : Advanced Video Codec
Format profile                           : High@L4
Format settings                          : CABAC / 4 Ref Frames
Format settings, CABAC                   : Yes
Format settings, Reference frames        : 4 frames
Codec ID                                 : V_MPEG4/ISO/AVC
Duration                                 : 25 min 14 s
Bit rate                                 : 4 974 kb/s
Width                                    : 1 920 pixels
Height                                   : 1 080 pixels
Display aspect ratio                     : 16:9
Frame rate mode                          : Constant
Frame rate                               : 23.976 (24000/1001) FPS
Color space                              : YUV
Chroma subsampling                       : 4:2:0
Bit depth                                : 8 bits
Scan type                                : Progressive
Bits/(Pixel*Frame)                       : 0.100
Stream size                              : 898 MiB (99%)
Default                                  : Yes
Forced                                   : No

Audio
ID                                       : 2
Format                                   : AAC LC SBR
Format/Info                              : Advanced Audio Codec Low Complexity with Spectral Band Replication
Commercial name                          : HE-AAC
Format settings                          : Explicit
Codec ID                                 : A_AAC-2
Duration                                 : 25 min 15 s
Bit rate                                 : 64.0 kb/s
Channel(s)                               : 2 channels
Channel layout                           : L R
Sampling rate                            : 48.0 kHz
Frame rate                               : 23.438 FPS (2048 SPF)
Compression mode                         : Lossy
Stream size                              : 11.6 MiB (1%)
Default                                  : Yes
Forced                                   : No

Text
ID                                       : 3
Format                                   : UTF-8
Codec ID                                 : S_TEXT/UTF8
Codec ID/Info                            : UTF-8 Plain Text
Duration                                 : 24 min 0 s
Bit rate                                 : 97 b/s
Frame rate                               : 0.383 FPS
Count of elements                        : 551
Stream size                              : 17.2 KiB (0%)
Language                                 : English
Default                                  : No
Forced                                   : No



Download
File Container: MKV
Video/Audio Codec: H264 (HIGH) AAC (HE-AAC)
Video Resolution: 1920x1080
Please Login to post a comment.
If you don't have any account, please Register.
  • Subscribe my Feeds
  • Facebook
Encoding Queue:  x264  x265

Latest Episodes

Popular Movies and TV Shows

  • Shogun
  • NCIS
  • Immaculate
  • NCIS: Hawai'i
  • Sweet Dreams
  • The Crow: Salvation
  • The Neighborhood
  • Bob Hearts Abishola
  • Expedition X
  • Dune: Part Two
  • The 100th: Billy Joel at Madison Square Garden - The Greatest Arena Run of All Time
  • SoulBoy
  • The Sympathizer
  • Family Guy
  • Tracker
  • Still: A Michael J. Fox Movie
  • Hundreds of Beavers
  • Killer Fortune Teller
  • The Great North
  • Model House
  • When Calls the Heart
  • Sullivan's Crossing
  • Abba: How They Won Eurovision
  • The Batman vs. Dracula
  • Fallout

Recent Comments

  • kellym2: Why am I getting "Server is in maintenance mode" on some episodes of a series and not on o...
  • Bud:

    Are you ever going to put up Thursday's episode with Liev Schreiber?

  • alp-engin:

    When will that maintenance be over? Please...

  • mentalityx:

    Rad bloke

  • DownloadHostInspector:

    so far these RMTeam uploads always have a working link. DownloadHostInspector approved!

  • DownloadHostInspector:

    ah yes, this upload has a host that works. clicknupload. DownloadHostInspector approved!

  • DownloadHostInspector: Why are all the download hosts trash? none of them let you download it
  • Qua4ratic:

    clicknupload link plz

  • ppoo:

    Please, can you add "Real Time with Bill Maher S22E11" ??

  • theahtisham:

    Kindly upload Ep. 3 and 4 as well.

Archives