Sign Up   |   Sign In  
World's Most Scenic River JourneysGriseldaThe Taste of ThingsResident AlienChamkilaBig VoiceShogunSaturday Night LiveNinja KamuiLegend of the Lost LocketFantastic Four: Rise of the Silver SurferThe BeekeeperBeacon 23ParishImmoral WomenWillowS.W.A.T.ScrambledFalloutGrey's AnatomyBlue BloodsRiddle of FirePacific Rim: UprisingThe War on ChildrenSugar

Announcements

03/31

2024

1

Comments

Saved by the Bell 2020 S01E01 Pilot 1080p PCOK WEB-DL DDP5 1 x264-NTb
[RR/NF/CU]
Size: 1.7GB mkv H264 (HIGH) / EAC3  HD  1920x1080

Saved by the Bell
File Information
[img]http://lookpic.com/cdn/i2/t/0331202405240394-1.jpg[/img]
[img]http://lookpic.com/cdn/i2/t/0331202405240394-2.jpg[/img]
[img]http://lookpic.com/cdn/i2/t/0331202405240394-3.jpg[/img]

General
Unique ID                                : 258487029847050324517917911695946712609 (0xC276CA85A607D5BDFD53BCAE15888621)
Complete name                            : Saved by the Bell 2020 S01E01 Pilot 1080p PCOK WEB-DL DDP5 1 x264-NTb.mkv
Format                                   : Matroska
Format version                           : Version 4
File size                                : 1.68 GiB
Duration                                 : 31 min 31 s
Overall bit rate                         : 7 612 kb/s
Frame rate                               : 23.976 FPS
Writing application                      : mkvmerge v45.0.0 ('Heaven in Pennies') 64-bit
Writing library                          : libebml v1.3.10 + libmatroska v1.5.2

Video
ID                                       : 1
Format                                   : AVC
Format/Info                              : Advanced Video Codec
Format profile                           : High@L4
Format settings                          : CABAC / 4 Ref Frames
Format settings, CABAC                   : Yes
Format settings, Reference frames        : 4 frames
Codec ID                                 : V_MPEG4/ISO/AVC
Duration                                 : 31 min 31 s
Bit rate                                 : 7 418 kb/s
Nominal bit rate                         : 7 814 kb/s
Width                                    : 1 920 pixels
Height                                   : 1 080 pixels
Display aspect ratio                     : 16:9
Frame rate mode                          : Constant
Frame rate                               : 23.976 (24000/1001) FPS
Color space                              : YUV
Chroma subsampling                       : 4:2:0
Bit depth                                : 8 bits
Scan type                                : Progressive
Bits/(Pixel*Frame)                       : 0.149
Stream size                              : 1.63 GiB (97%)
Writing library                          : x264 core 160 r3011 cde9a93
 Encoding settings                        : cabac=1 / ref=4 / deblock=1:0:0 / analyse=0x3:0x113 / me=umh / subme=7 / psy=1 / psy_rd=0.00:0.00 / mixed_ref=1 / me_range=16 / chroma_me=1 / trellis=1 / 8x8dct=1 / cqm=0 / deadz / fast pskip=0 / chroma_qp_offset=0 / threads=34 / lookahead_threads=5 / sliced_threads=0 / nr=0 / decimate=1 / interlaced=0 / bluray_compat=0 / c / bframes=16 / b_pyramid=2 / b_adapt=1 / b_bias=0 / direct=1 / weightb=1 / open_gop=0 / weightp=2 / keyint=48 / keyint_min=25 / scenecut=0 / intra_refresh=0 / rc_lookahead=40 / rc=2pass / mbtree=1 / bitrate=7814 / ratetol=1.0 / qcomp=0.60 / qpmin=10 / qpmax=51 / qpstep=4 / cplxblur=20.0 / qblur=0.5 / vbv_maxrate=7814 / vbv_bufsize=7814 / nal_hrd=none / filler=0 / ip_ratio=1.41 / aq=1:1.00
Default                                  : Yes
Forced                                   : No

Audio
ID                                       : 2
Format                                   : E-AC-3
Format/Info                              : Enhanced AC-3
Commercial name                          : Dolby Digital Plus
Codec ID                                 : A_EAC3
Duration                                 : 31 min 31 s
Bit rate mode                            : Constant
Bit rate                                 : 192 kb/s
Channel(s)                               : 6 channels
Channel layout                           : L R C LFE Ls Rs
Sampling rate                            : 48.0 kHz
Frame rate                               : 31.250 FPS (1536 SPF)
Compression mode                         : Lossy
Stream size                              : 43.3 MiB (3%)
Language                                 : English
Service kind                             : Complete Main
Default                                  : Yes
Forced                                   : No

Text #1
ID                                       : 3
Format                                   : UTF-8
Codec ID                                 : S_TEXT/UTF8
Codec ID/Info                            : UTF-8 Plain Text
Duration                                 : 31 min 18 s
Bit rate                                 : 121 b/s
Frame rate                               : 0.459 FPS
Count of elements                        : 862
Stream size                              : 27.9 KiB (0%)
Title                                    : SDH
Language                                 : English
Default                                  : No
Forced                                   : No

Text #2
ID                                       : 4
Format                                   : UTF-8
Codec ID                                 : S_TEXT/UTF8
Codec ID/Info                            : UTF-8 Plain Text
Duration                                 : 30 min 28 s
Bit rate                                 : 119 b/s
Frame rate                               : 0.445 FPS
Count of elements                        : 813
Stream size                              : 26.7 KiB (0%)
Language                                 : Spanish
Default                                  : No
Forced                                   : No

Menu
00:30:28.994                             : en:Credits



Download
File Container: MKV
Video/Audio Codec: H264 (HIGH) EAC3
Video Resolution: 1920x1080

1 Response to "[RR/NF/CU] Saved by the Bell 2020 S01E01 Pilot 1080p PCOK WEB-DL DDP5 1 x264-NTb (1.7GB)"
03/31/24
06:48:54
ReadyPlayerOne

Thank you!

Please Login to post a comment.
If you don't have any account, please Register.
  • Subscribe my Feeds
  • Facebook
Encoding Queue:  x264  x265

Latest Episodes

Popular Movies and TV Shows

  • World's Most Scenic River Journeys
  • Griselda
  • The Taste of Things
  • Resident Alien
  • Chamkila
  • Big Voice
  • Shogun
  • Saturday Night Live
  • Ninja Kamui
  • Legend of the Lost Locket
  • Fantastic Four: Rise of the Silver Surfer
  • The Beekeeper
  • Beacon 23
  • Parish
  • Immoral Women
  • Willow
  • S.W.A.T.
  • Scrambled
  • Fallout
  • Grey's Anatomy
  • Blue Bloods
  • Riddle of Fire
  • Pacific Rim: Uprising
  • The War on Children
  • Sugar

Recent Comments

  • mentalityx:

    Rad bloke

  • DownloadHostInspector:

    so far these RMTeam uploads always have a working link. DownloadHostInspector approved!

  • DownloadHostInspector:

    ah yes, this upload has a host that works. clicknupload. DownloadHostInspector approved!

  • DownloadHostInspector: Why are all the download hosts trash? none of them let you download it
  • Qua4ratic:

    clicknupload link plz

  • ppoo:

    Please, can you add "Real Time with Bill Maher S22E11" ??

  • theahtisham:

    Kindly upload Ep. 3 and 4 as well.

  • Kudzu: Update on sound issue, File's codec info says stereo but is only a the left channel If I switch i...
  • Admin:

    kang
    Getting error while encoding, sorry

Archives