Sign Up   |   Sign In  
World's Most Scenic River JourneysThe Taste of ThingsResident AlienNew Zealand by TrainAutomationLegend of the Lost LocketShogunParishSaturday Night LiveFantastic Four: Rise of the Silver SurferTenetThe BeekeeperBeacon 23Immoral WomenWillowNinja KamuiYoung SheldonScrambledFalloutS.W.A.T.Grey's AnatomyRiddle of FirePacific Rim: UprisingThe War on ChildrenSugar

Announcements

04/01

2024

No

Comments

Tell Me A Story US S02E01 1080p AMZN WEB-DL DDP5 1 H 264-NTb
[RR/NF]
Size: 2.2GB mkv H264 (HIGH) / EAC3  HD  1920x1080

Tell Me a Story
File Information
[img]http://lookpic.com/cdn/i2/t/0331202423501564-1.jpg[/img]
[img]http://lookpic.com/cdn/i2/t/0331202423501564-2.jpg[/img]
[img]http://lookpic.com/cdn/i2/t/0331202423501564-3.jpg[/img]

General
Unique ID                                : 149076462963886195738464774195173452982 (0x70271518555A2081C75CE0DB943CECB6)
Complete name                            : Tell Me A Story US S02E01 1080p AMZN WEB-DL DDP5 1 H 264-NTb.mkv
Format                                   : Matroska
Format version                           : Version 4
File size                                : 2.21 GiB
Duration                                 : 49 min 5 s
Overall bit rate                         : 6 450 kb/s
Frame rate                               : 24.000 FPS
Encoded date                             : 2019-12-05 09:07:23 UTC
Writing application                      : mkvmerge v23.0.0 ('The Bride Said No') 64-bit
Writing library                          : libebml v1.3.6 + libmatroska v1.4.9

Video
ID                                       : 1
Format                                   : AVC
Format/Info                              : Advanced Video Codec
Format profile                           : High@L4
Format settings                          : CABAC / 4 Ref Frames
Format settings, CABAC                   : Yes
Format settings, Reference frames        : 4 frames
Codec ID                                 : V_MPEG4/ISO/AVC
Duration                                 : 49 min 5 s
Bit rate mode                            : Constant
Bit rate                                 : 5 808 kb/s
Nominal bit rate                         : 10 000 kb/s
Width                                    : 1 920 pixels
Height                                   : 1 080 pixels
Display aspect ratio                     : 16:9
Frame rate mode                          : Constant
Frame rate                               : 24.000 FPS
Color space                              : YUV
Chroma subsampling                       : 4:2:0
Bit depth                                : 8 bits
Scan type                                : Progressive
Bits/(Pixel*Frame)                       : 0.117
Stream size                              : 1.99 GiB (90%)
Default                                  : Yes
Forced                                   : No
Color range                              : Limited
Color primaries                          : BT.709
Transfer characteristics                 : BT.709
Matrix coefficients                      : BT.709

Audio
ID                                       : 2
Format                                   : E-AC-3
Format/Info                              : Enhanced AC-3
Commercial name                          : Dolby Digital Plus
Codec ID                                 : A_EAC3
Duration                                 : 49 min 5 s
Bit rate mode                            : Constant
Bit rate                                 : 640 kb/s
Channel(s)                               : 6 channels
Channel layout                           : L R C LFE Ls Rs
Sampling rate                            : 48.0 kHz
Frame rate                               : 31.250 FPS (1536 SPF)
Compression mode                         : Lossy
Stream size                              : 225 MiB (10%)
Language                                 : English
Service kind                             : Complete Main
Default                                  : Yes
Forced                                   : No

Text
ID                                       : 3
Format                                   : UTF-8
Codec ID                                 : S_TEXT/UTF8
Codec ID/Info                            : UTF-8 Plain Text
Duration                                 : 46 min 30 s
Bit rate                                 : 53 b/s
Frame rate                               : 0.282 FPS
Count of elements                        : 786
Stream size                              : 18.3 KiB (0%)
Title                                    : SDH
Language                                 : English
Default                                  : No
Forced                                   : No



Download
File Container: MKV
Video/Audio Codec: H264 (HIGH) EAC3
Video Resolution: 1920x1080
Please Login to post a comment.
If you don't have any account, please Register.
  • Subscribe my Feeds
  • Facebook
Encoding Queue:  x264  x265

Latest Episodes

Popular Movies and TV Shows

  • World's Most Scenic River Journeys
  • The Taste of Things
  • Resident Alien
  • New Zealand by Train
  • Automation
  • Legend of the Lost Locket
  • Shogun
  • Parish
  • Saturday Night Live
  • Fantastic Four: Rise of the Silver Surfer
  • Tenet
  • The Beekeeper
  • Beacon 23
  • Immoral Women
  • Willow
  • Ninja Kamui
  • Young Sheldon
  • Scrambled
  • Fallout
  • S.W.A.T.
  • Grey's Anatomy
  • Riddle of Fire
  • Pacific Rim: Uprising
  • The War on Children
  • Sugar

Recent Comments

  • mentalityx:

    Rad bloke

  • DownloadHostInspector:

    so far these RMTeam uploads always have a working link. DownloadHostInspector approved!

  • DownloadHostInspector:

    ah yes, this upload has a host that works. clicknupload. DownloadHostInspector approved!

  • DownloadHostInspector: Why are all the download hosts trash? none of them let you download it
  • Qua4ratic:

    clicknupload link plz

  • ppoo:

    Please, can you add "Real Time with Bill Maher S22E11" ??

  • theahtisham:

    Kindly upload Ep. 3 and 4 as well.

  • Kudzu: Update on sound issue, File's codec info says stereo but is only a the left channel If I switch i...
  • Admin:

    kang
    Getting error while encoding, sorry

Archives