Sign Up   |   Sign In  
ShogunNCISNCIS: Hawai'iImmaculateSweet DreamsSpring BreakersThe NeighborhoodBob Hearts AbisholaAll AmericanThe Crow: SalvationThe 100th: Billy Joel at Madison Square Garden - The Greatest Arena Run of All TimeDune: Part TwoThe SympathizerTrackerFamily GuyKiller Fortune TellerStill: A Michael J. Fox MovieMoney TalksThe Great NorthHundreds of BeaversModel HouseWhen Calls the HeartThe Bold and the BeautifulAbba: How They Won EurovisionFallout

Announcements

03/28

2024

No

Comments

The Baxters 2024 S01E04 In Hindsight 1080p AMZN WEB-DL DDP5 1 H 264-FLUX
[RR/NF/CU]
Size: 1.3GB mkv H264 (HIGH) / EAC3  HD  1920x960

The Baxters
File Information
[img]http://lookpic.com/cdn/i2/t/0328202414092814-1.jpg[/img]
[img]http://lookpic.com/cdn/i2/t/0328202414092814-2.jpg[/img]
[img]http://lookpic.com/cdn/i2/t/0328202414092814-3.jpg[/img]

General
Unique ID                                : 333987635140296303774786844485547491950 (0xFB43ADC307C76860060D9EBE6640826E)
Complete name                            : The Baxters 2024 S01E04 In Hindsight 1080p AMZN WEB-DL DDP5 1 H 264-FLUX.mkv
Format                                   : Matroska
Format version                           : Version 4
File size                                : 1.32 GiB
Duration                                 : 22 min 18 s
Overall bit rate                         : 8 474 kb/s
Frame rate                               : 23.976 FPS
Writing application                      : mkvmerge v81.0 ('Milliontown') 64-bit
Writing library                          : libebml v1.4.4 + libmatroska v1.7.1

Video
ID                                       : 1
Format                                   : AVC
Format/Info                              : Advanced Video Codec
Format profile                           : High@L4
Format settings                          : CABAC / 4 Ref Frames
Format settings, CABAC                   : Yes
Format settings, Reference frames        : 4 frames
Codec ID                                 : V_MPEG4/ISO/AVC
Duration                                 : 22 min 18 s
Bit rate mode                            : Constant
Bit rate                                 : 7 831 kb/s
Nominal bit rate                         : 10 000 kb/s
Width                                    : 1 920 pixels
Height                                   : 960 pixels
Display aspect ratio                     : 2.000
Frame rate mode                          : Constant
Frame rate                               : 23.976 (24000/1001) FPS
Color space                              : YUV
Chroma subsampling                       : 4:2:0
Bit depth                                : 8 bits
Scan type                                : Progressive
Bits/(Pixel*Frame)                       : 0.177
Stream size                              : 1.22 GiB (92%)
Language                                 : English (US)
Default                                  : Yes
Forced                                   : No
Color range                              : Limited
Color primaries                          : BT.709
Transfer characteristics                 : BT.709
Matrix coefficients                      : BT.709

Audio
ID                                       : 2
Format                                   : E-AC-3
Format/Info                              : Enhanced AC-3
Commercial name                          : Dolby Digital Plus
Codec ID                                 : A_EAC3
Duration                                 : 22 min 18 s
Bit rate mode                            : Constant
Bit rate                                 : 640 kb/s
Channel(s)                               : 6 channels
Channel layout                           : L R C LFE Ls Rs
Sampling rate                            : 48.0 kHz
Frame rate                               : 31.250 FPS (1536 SPF)
Compression mode                         : Lossy
Stream size                              : 102 MiB (8%)
Language                                 : English (US)
Service kind                             : Complete Main
Default                                  : Yes
Forced                                   : No

Text #1
ID                                       : 3
Format                                   : UTF-8
Codec ID                                 : S_TEXT/UTF8
Codec ID/Info                            : UTF-8 Plain Text
Duration                                 : 21 min 22 s
Bit rate                                 : 68 b/s
Frame rate                               : 0.249 FPS
Count of elements                        : 319
Stream size                              : 10.8 KiB (0%)
Language                                 : English (US)
Default                                  : No
Forced                                   : No

Text #2
ID                                       : 4
Format                                   : UTF-8
Codec ID                                 : S_TEXT/UTF8
Codec ID/Info                            : UTF-8 Plain Text
Duration                                 : 21 min 22 s
Bit rate                                 : 70 b/s
Frame rate                               : 0.256 FPS
Count of elements                        : 328
Stream size                              : 11.0 KiB (0%)
Title                                    : SDH
Language                                 : English (US)
Default                                  : No
Forced                                   : No

Text #3
ID                                       : 5
Format                                   : UTF-8
Codec ID                                 : S_TEXT/UTF8
Codec ID/Info                            : UTF-8 Plain Text
Duration                                 : 22 min 2 s
Bit rate                                 : 59 b/s
Frame rate                               : 0.195 FPS
Count of elements                        : 258
Stream size                              : 9.54 KiB (0%)
Language                                 : German (DE)
Default                                  : No
Forced                                   : No

Text #4
ID                                       : 6
Format                                   : UTF-8
Codec ID                                 : S_TEXT/UTF8
Codec ID/Info                            : UTF-8 Plain Text
Duration                                 : 22 min 2 s
Bit rate                                 : 57 b/s
Frame rate                               : 0.196 FPS
Count of elements                        : 259
Stream size                              : 9.36 KiB (0%)
Title                                    : Latin American
Language                                 : Spanish (Latin America)
Default                                  : No
Forced                                   : No

Text #5
ID                                       : 7
Format                                   : UTF-8
Codec ID                                 : S_TEXT/UTF8
Codec ID/Info                            : UTF-8 Plain Text
Duration                                 : 22 min 2 s
Bit rate                                 : 57 b/s
Frame rate                               : 0.194 FPS
Count of elements                        : 257
Stream size                              : 9.33 KiB (0%)
Language                                 : French (FR)
Default                                  : No
Forced                                   : No

Text #6
ID                                       : 8
Format                                   : UTF-8
Codec ID                                 : S_TEXT/UTF8
Codec ID/Info                            : UTF-8 Plain Text
Duration                                 : 22 min 2 s
Bit rate                                 : 146 b/s
Frame rate                               : 0.196 FPS
Count of elements                        : 259
Stream size                              : 23.7 KiB (0%)
Language                                 : Hindi (IN)
Default                                  : No
Forced                                   : No

Text #7
ID                                       : 9
Format                                   : UTF-8
Codec ID                                 : S_TEXT/UTF8
Codec ID/Info                            : UTF-8 Plain Text
Duration                                 : 22 min 2 s
Bit rate                                 : 56 b/s
Frame rate                               : 0.196 FPS
Count of elements                        : 259
Stream size                              : 9.20 KiB (0%)
Language                                 : Italian (IT)
Default                                  : No
Forced                                   : No

Text #8
ID                                       : 10
Format                                   : UTF-8
Codec ID                                 : S_TEXT/UTF8
Codec ID/Info                            : UTF-8 Plain Text
Duration                                 : 22 min 2 s
Bit rate                                 : 50 b/s
Frame rate                               : 0.235 FPS
Count of elements                        : 311
Stream size                              : 8.16 KiB (0%)
Language                                 : Japanese (JP)
Default                                  : No
Forced                                   : No

Text #9
ID                                       : 11
Format                                   : UTF-8
Codec ID                                 : S_TEXT/UTF8
Codec ID/Info                            : UTF-8 Plain Text
Duration                                 : 22 min 2 s
Bit rate                                 : 58 b/s
Frame rate                               : 0.196 FPS
Count of elements                        : 259
Stream size                              : 9.39 KiB (0%)
Title                                    : Brazilian
Language                                 : Portuguese (BR)
Default                                  : No
Forced                                   : No

Menu
00:00:00.000                             : en:Studio Logo
00:00:06.000                             : en:Scene 1
00:00:47.000                             : en:Opening Credits
00:01:20.000                             : en:Title Sequence
00:01:30.000                             : en:Scene 2
00:03:33.000                             : en:Scene 3
00:05:52.000                             : en:Scene 4
00:08:12.000                             : en:Scene 5
00:10:19.000                             : en:Scene 6
00:12:19.000                             : en:Scene 7
00:15:24.000                             : en:Scene 8
00:17:16.000                             : en:Scene 9
00:19:14.000                             : en:Scene 10
00:20:52.000                             : en:Next On
00:21:34.000                             : en:End Credits



Download
File Container: MKV
Video/Audio Codec: H264 (HIGH) EAC3
Video Resolution: 1920x960
Please Login to post a comment.
If you don't have any account, please Register.
  • Subscribe my Feeds
  • Facebook
Encoding Queue:  x264  x265

Latest Episodes

Popular Movies and TV Shows

  • Shogun
  • NCIS
  • NCIS: Hawai'i
  • Immaculate
  • Sweet Dreams
  • Spring Breakers
  • The Neighborhood
  • Bob Hearts Abishola
  • All American
  • The Crow: Salvation
  • The 100th: Billy Joel at Madison Square Garden - The Greatest Arena Run of All Time
  • Dune: Part Two
  • The Sympathizer
  • Tracker
  • Family Guy
  • Killer Fortune Teller
  • Still: A Michael J. Fox Movie
  • Money Talks
  • The Great North
  • Hundreds of Beavers
  • Model House
  • When Calls the Heart
  • The Bold and the Beautiful
  • Abba: How They Won Eurovision
  • Fallout

Recent Comments

  • kellym2: Why am I getting "Server is in maintenance mode" on some episodes of a series and not on o...
  • Bud:

    Are you ever going to put up Thursday's episode with Liev Schreiber?

  • alp-engin:

    When will that maintenance be over? Please...

  • mentalityx:

    Rad bloke

  • DownloadHostInspector:

    so far these RMTeam uploads always have a working link. DownloadHostInspector approved!

  • DownloadHostInspector:

    ah yes, this upload has a host that works. clicknupload. DownloadHostInspector approved!

  • DownloadHostInspector: Why are all the download hosts trash? none of them let you download it
  • Qua4ratic:

    clicknupload link plz

  • ppoo:

    Please, can you add "Real Time with Bill Maher S22E11" ??

  • theahtisham:

    Kindly upload Ep. 3 and 4 as well.

Archives