Sign Up   |   Sign In  
The Taste of ThingsResident AlienBig VoiceThe ChannelThe FableWorld's Most Scenic River JourneysShogunSaturday Night LiveLegend of the Lost LocketNinja KamuiFantastic Four: Rise of the Silver SurferThe BeekeeperBeacon 23ParishImmoral WomenWillowS.W.A.T.ScrambledFalloutGrey's AnatomyBlue BloodsRiddle of FirePacific Rim: UprisingThe War on ChildrenSugar

Announcements

03/29

2024

No

Comments

The Baxters 2024 S03E01 New Beginnings 1080p AMZN WEB-DL DDP5 1 H 264-NTb
[RR/NF/CU]
Size: 1.7GB mkv H264 (HIGH) / EAC3  HD  1920x960

The Baxters
File Information
[img]http://lookpic.com/cdn/i2/t/0329202404553850-1.jpg[/img]
[img]http://lookpic.com/cdn/i2/t/0329202404553850-2.jpg[/img]
[img]http://lookpic.com/cdn/i2/t/0329202404553850-3.jpg[/img]

General
Unique ID                                : 95654396250614764229748231744633372151 (0x47F65DD9D5858DED41CBA8498C7EFDF7)
Complete name                            : The Baxters 2024 S03E01 New Beginnings 1080p AMZN WEB-DL DDP5 1 H 264-NTb.mkv
Format                                   : Matroska
Format version                           : Version 4
File size                                : 1.72 GiB
Duration                                 : 29 min 46 s
Overall bit rate                         : 8 251 kb/s
Frame rate                               : 23.976 FPS
Writing application                      : mkvmerge v81.0 ('Milliontown') 64-bit
Writing library                          : libebml v1.4.4 + libmatroska v1.7.1

Video
ID                                       : 1
Format                                   : AVC
Format/Info                              : Advanced Video Codec
Format profile                           : High@L4
Format settings                          : CABAC / 4 Ref Frames
Format settings, CABAC                   : Yes
Format settings, Reference frames        : 4 frames
Codec ID                                 : V_MPEG4/ISO/AVC
Duration                                 : 29 min 46 s
Bit rate mode                            : Constant
Bit rate                                 : 7 608 kb/s
Nominal bit rate                         : 10 000 kb/s
Width                                    : 1 920 pixels
Height                                   : 960 pixels
Display aspect ratio                     : 2.000
Frame rate mode                          : Constant
Frame rate                               : 23.976 (24000/1001) FPS
Color space                              : YUV
Chroma subsampling                       : 4:2:0
Bit depth                                : 8 bits
Scan type                                : Progressive
Bits/(Pixel*Frame)                       : 0.172
Stream size                              : 1.58 GiB (92%)
Default                                  : Yes
Forced                                   : No
Color range                              : Limited
Color primaries                          : BT.709
Transfer characteristics                 : BT.709
Matrix coefficients                      : BT.709

Audio
ID                                       : 2
Format                                   : E-AC-3
Format/Info                              : Enhanced AC-3
Commercial name                          : Dolby Digital Plus
Codec ID                                 : A_EAC3
Duration                                 : 29 min 46 s
Bit rate mode                            : Constant
Bit rate                                 : 640 kb/s
Channel(s)                               : 6 channels
Channel layout                           : L R C LFE Ls Rs
Sampling rate                            : 48.0 kHz
Frame rate                               : 31.250 FPS (1536 SPF)
Compression mode                         : Lossy
Stream size                              : 136 MiB (8%)
Language                                 : English (US)
Service kind                             : Complete Main
Default                                  : Yes
Forced                                   : No

Text #1
ID                                       : 3
Format                                   : UTF-8
Codec ID                                 : S_TEXT/UTF8
Codec ID/Info                            : UTF-8 Plain Text
Duration                                 : 28 min 51 s
Bit rate                                 : 73 b/s
Frame rate                               : 0.268 FPS
Count of elements                        : 464
Stream size                              : 15.5 KiB (0%)
Language                                 : English (US)
Default                                  : No
Forced                                   : No

Text #2
ID                                       : 4
Format                                   : UTF-8
Codec ID                                 : S_TEXT/UTF8
Codec ID/Info                            : UTF-8 Plain Text
Duration                                 : 28 min 57 s
Bit rate                                 : 78 b/s
Frame rate                               : 0.282 FPS
Count of elements                        : 489
Stream size                              : 16.6 KiB (0%)
Title                                    : SDH
Language                                 : English (US)
Default                                  : No
Forced                                   : No

Text #3
ID                                       : 5
Format                                   : UTF-8
Codec ID                                 : S_TEXT/UTF8
Codec ID/Info                            : UTF-8 Plain Text
Duration                                 : 29 min 30 s
Bit rate                                 : 68 b/s
Frame rate                               : 0.242 FPS
Count of elements                        : 429
Stream size                              : 14.7 KiB (0%)
Language                                 : German (DE)
Default                                  : No
Forced                                   : No

Text #4
ID                                       : 6
Format                                   : UTF-8
Codec ID                                 : S_TEXT/UTF8
Codec ID/Info                            : UTF-8 Plain Text
Duration                                 : 29 min 30 s
Bit rate                                 : 65 b/s
Frame rate                               : 0.245 FPS
Count of elements                        : 434
Stream size                              : 14.3 KiB (0%)
Title                                    : Spanish (Latin America)
Language                                 : Spanish (Latin America)
Default                                  : No
Forced                                   : No

Text #5
ID                                       : 7
Format                                   : UTF-8
Codec ID                                 : S_TEXT/UTF8
Codec ID/Info                            : UTF-8 Plain Text
Duration                                 : 29 min 30 s
Bit rate                                 : 63 b/s
Frame rate                               : 0.245 FPS
Count of elements                        : 434
Stream size                              : 13.8 KiB (0%)
Title                                    : Spanish (Spain)
Language                                 : Spanish (ES)
Default                                  : No
Forced                                   : No

Text #6
ID                                       : 8
Format                                   : UTF-8
Codec ID                                 : S_TEXT/UTF8
Codec ID/Info                            : UTF-8 Plain Text
Duration                                 : 29 min 30 s
Bit rate                                 : 66 b/s
Frame rate                               : 0.242 FPS
Count of elements                        : 428
Stream size                              : 14.5 KiB (0%)
Language                                 : French (FR)
Default                                  : No
Forced                                   : No

Text #7
ID                                       : 9
Format                                   : UTF-8
Codec ID                                 : S_TEXT/UTF8
Codec ID/Info                            : UTF-8 Plain Text
Duration                                 : 29 min 30 s
Bit rate                                 : 158 b/s
Frame rate                               : 0.246 FPS
Count of elements                        : 436
Stream size                              : 34.2 KiB (0%)
Language                                 : Hindi (IN)
Default                                  : No
Forced                                   : No

Text #8
ID                                       : 10
Format                                   : UTF-8
Codec ID                                 : S_TEXT/UTF8
Codec ID/Info                            : UTF-8 Plain Text
Duration                                 : 29 min 30 s
Bit rate                                 : 66 b/s
Frame rate                               : 0.245 FPS
Count of elements                        : 433
Stream size                              : 14.3 KiB (0%)
Language                                 : Italian (IT)
Default                                  : No
Forced                                   : No

Text #9
ID                                       : 11
Format                                   : UTF-8
Codec ID                                 : S_TEXT/UTF8
Codec ID/Info                            : UTF-8 Plain Text
Duration                                 : 29 min 30 s
Bit rate                                 : 57 b/s
Frame rate                               : 0.259 FPS
Count of elements                        : 459
Stream size                              : 12.3 KiB (0%)
Language                                 : Japanese (JP)
Default                                  : No
Forced                                   : No

Text #10
ID                                       : 12
Format                                   : UTF-8
Codec ID                                 : S_TEXT/UTF8
Codec ID/Info                            : UTF-8 Plain Text
Duration                                 : 29 min 30 s
Bit rate                                 : 64 b/s
Frame rate                               : 0.245 FPS
Count of elements                        : 433
Stream size                              : 13.9 KiB (0%)
Language                                 : Portuguese (BR)
Default                                  : No
Forced                                   : No

Menu
00:00:00.000                             : en:Scene 1
00:00:19.000                             : en:Scene 2
00:00:41.000                             : en:Scene 3
00:01:09.000                             : en:Scene 4
00:01:42.000                             : en:Scene 5
00:01:59.000                             : en:Scene 6
00:02:43.000                             : en:Scene 7
00:06:05.000                             : en:Scene 8
00:07:27.000                             : en:Scene 9
00:08:27.000                             : en:Scene 10
00:11:29.000                             : en:Scene 11
00:12:03.000                             : en:Scene 12
00:12:58.000                             : en:Scene 13
00:14:55.000                             : en:Scene 14
00:15:20.000                             : en:Scene 15
00:16:12.000                             : en:Scene 16
00:18:15.000                             : en:Scene 17
00:19:47.000                             : en:Scene 18
00:20:26.000                             : en:Scene 19
00:20:59.000                             : en:Scene 20
00:21:40.000                             : en:Scene 21
00:22:28.000                             : en:Scene 22
00:23:08.000                             : en:Scene 23
00:25:57.000                             : en:Scene 24
00:27:48.000                             : en:Scene 25
00:28:31.000                             : en:Scene 26
00:28:56.000                             : en:Scene 27



Download
File Container: MKV
Video/Audio Codec: H264 (HIGH) EAC3
Video Resolution: 1920x960
Please Login to post a comment.
If you don't have any account, please Register.
  • Subscribe my Feeds
  • Facebook
Encoding Queue:  x264  x265

Latest Episodes

Popular Movies and TV Shows

  • The Taste of Things
  • Resident Alien
  • Big Voice
  • The Channel
  • The Fable
  • World's Most Scenic River Journeys
  • Shogun
  • Saturday Night Live
  • Legend of the Lost Locket
  • Ninja Kamui
  • Fantastic Four: Rise of the Silver Surfer
  • The Beekeeper
  • Beacon 23
  • Parish
  • Immoral Women
  • Willow
  • S.W.A.T.
  • Scrambled
  • Fallout
  • Grey's Anatomy
  • Blue Bloods
  • Riddle of Fire
  • Pacific Rim: Uprising
  • The War on Children
  • Sugar

Recent Comments

  • mentalityx:

    Rad bloke

  • DownloadHostInspector:

    so far these RMTeam uploads always have a working link. DownloadHostInspector approved!

  • DownloadHostInspector:

    ah yes, this upload has a host that works. clicknupload. DownloadHostInspector approved!

  • DownloadHostInspector: Why are all the download hosts trash? none of them let you download it
  • Qua4ratic:

    clicknupload link plz

  • ppoo:

    Please, can you add "Real Time with Bill Maher S22E11" ??

  • theahtisham:

    Kindly upload Ep. 3 and 4 as well.

  • Kudzu: Update on sound issue, File's codec info says stereo but is only a the left channel If I switch i...
  • Admin:

    kang
    Getting error while encoding, sorry

Archives