Sign Up   |   Sign In  
The ChannelA Very Royal Crisis: Countdown to AbdicationThe Ace and the ScoutThe FableResident AlienGo! Go! Loser Ranger!ShogunThe Taste of ThingsSaturday Night LiveNinja KamuiLegend of the Lost LocketFantastic Four: Rise of the Silver SurferBeacon 23ParishImmoral WomenWillowS.W.A.T.ScrambledFalloutGrey's AnatomyBlue BloodsRiddle of FirePacific Rim: UprisingThe War on ChildrenSugar

Announcements

03/29

2024

1

Comments

The Gentleman in Moscow S01E01 A Master of Circumstance 1080p AMZN WEB-DL DDP5 1 H 264-NTb
[RR/NF]
Size: 3.3GB mkv H264 (HIGH) / EAC3  HD  1920x1080

A Gentleman in Moscow
File Information
[img]http://lookpic.com/cdn/i2/t/0329202415292364-1.jpg[/img]
[img]http://lookpic.com/cdn/i2/t/0329202415292364-2.jpg[/img]
[img]http://lookpic.com/cdn/i2/t/0329202415292364-3.jpg[/img]

General
Unique ID                                : 250970270105497488381118575030933161451 (0xBCCF1DA7580038D12E5816D17FD485EB)
Complete name                            : The Gentleman in Moscow S01E01 A Master of Circumstance 1080p AMZN WEB-DL DDP5 1 H 264-NTb.mkv
Format                                   : Matroska
Format version                           : Version 4
File size                                : 3.29 GiB
Duration                                 : 48 min 28 s
Overall bit rate                         : 9 715 kb/s
Frame rate                               : 23.976 FPS
Writing application                      : mkvmerge v81.0 ('Milliontown') 64-bit
Writing library                          : libebml v1.4.4 + libmatroska v1.7.1

Video
ID                                       : 1
Format                                   : AVC
Format/Info                              : Advanced Video Codec
Format profile                           : High@L4
Format settings                          : CABAC / 4 Ref Frames
Format settings, CABAC                   : Yes
Format settings, Reference frames        : 4 frames
Codec ID                                 : V_MPEG4/ISO/AVC
Duration                                 : 48 min 28 s
Bit rate mode                            : Constant
Bit rate                                 : 9 073 kb/s
Nominal bit rate                         : 10 000 kb/s
Width                                    : 1 920 pixels
Height                                   : 1 080 pixels
Display aspect ratio                     : 16:9
Frame rate mode                          : Constant
Frame rate                               : 23.976 (24000/1001) FPS
Color space                              : YUV
Chroma subsampling                       : 4:2:0
Bit depth                                : 8 bits
Scan type                                : Progressive
Bits/(Pixel*Frame)                       : 0.182
Stream size                              : 3.07 GiB (93%)
Default                                  : Yes
Forced                                   : No
Color range                              : Limited
Color primaries                          : BT.709
Transfer characteristics                 : BT.709
Matrix coefficients                      : BT.709

Audio
ID                                       : 2
Format                                   : E-AC-3
Format/Info                              : Enhanced AC-3
Commercial name                          : Dolby Digital Plus
Codec ID                                 : A_EAC3
Duration                                 : 48 min 28 s
Bit rate mode                            : Constant
Bit rate                                 : 640 kb/s
Channel(s)                               : 6 channels
Channel layout                           : L R C LFE Ls Rs
Sampling rate                            : 48.0 kHz
Frame rate                               : 31.250 FPS (1536 SPF)
Compression mode                         : Lossy
Stream size                              : 222 MiB (7%)
Language                                 : English (US)
Service kind                             : Complete Main
Default                                  : Yes
Forced                                   : No

Text #1
ID                                       : 3
Format                                   : UTF-8
Codec ID                                 : S_TEXT/UTF8
Codec ID/Info                            : UTF-8 Plain Text
Duration                                 : 47 min 15 s
Bit rate                                 : 44 b/s
Frame rate                               : 0.176 FPS
Count of elements                        : 498
Stream size                              : 15.3 KiB (0%)
Language                                 : English (US)
Default                                  : No
Forced                                   : No

Text #2
ID                                       : 4
Format                                   : UTF-8
Codec ID                                 : S_TEXT/UTF8
Codec ID/Info                            : UTF-8 Plain Text
Duration                                 : 47 min 49 s
Bit rate                                 : 51 b/s
Frame rate                               : 0.218 FPS
Count of elements                        : 625
Stream size                              : 17.9 KiB (0%)
Title                                    : SDH
Language                                 : English (US)
Default                                  : No
Forced                                   : No



Download
File Container: MKV
Video/Audio Codec: H264 (HIGH) EAC3
Video Resolution: 1920x1080

1 Response to "[RR/NF] The Gentleman in Moscow S01E01 A Master of Circumstance 1080p AMZN WEB-DL DDP5 1 H 264-NTb (3.3GB)"
03/29/24
17:35:22
ReadyPlayerOne

Thank you!

Please Login to post a comment.
If you don't have any account, please Register.
  • Subscribe my Feeds
  • Facebook
Encoding Queue:  x264  x265

Latest Episodes

Popular Movies and TV Shows

  • The Channel
  • A Very Royal Crisis: Countdown to Abdication
  • The Ace and the Scout
  • The Fable
  • Resident Alien
  • Go! Go! Loser Ranger!
  • Shogun
  • The Taste of Things
  • Saturday Night Live
  • Ninja Kamui
  • Legend of the Lost Locket
  • Fantastic Four: Rise of the Silver Surfer
  • Beacon 23
  • Parish
  • Immoral Women
  • Willow
  • S.W.A.T.
  • Scrambled
  • Fallout
  • Grey's Anatomy
  • Blue Bloods
  • Riddle of Fire
  • Pacific Rim: Uprising
  • The War on Children
  • Sugar

Recent Comments

  • mentalityx:

    Rad bloke

  • DownloadHostInspector:

    so far these RMTeam uploads always have a working link. DownloadHostInspector approved!

  • DownloadHostInspector:

    ah yes, this upload has a host that works. clicknupload. DownloadHostInspector approved!

  • DownloadHostInspector: Why are all the download hosts trash? none of them let you download it
  • Qua4ratic:

    clicknupload link plz

  • ppoo:

    Please, can you add "Real Time with Bill Maher S22E11" ??

  • theahtisham:

    Kindly upload Ep. 3 and 4 as well.

  • Kudzu: Update on sound issue, File's codec info says stereo but is only a the left channel If I switch i...
  • Admin:

    kang
    Getting error while encoding, sorry

Archives