Sign Up   |   Sign In  
Kung Fu HustleLicence to KillLook to the LightWonderful Precure!Welcome to WrexhamThere's Something About MaryRawhideDoctor ClimaxErotic Ghost Story IIILove IslandThe Loud HouseBeat Bobby FlayThe Bold and the BeautifulVice News Presents: Mass Shooting AmericaInside Out 2D-Day Hour by HourWWE NXTCatfish: The TV ShowWalkerEnter the Clones of BruceImmaculateI Saw the TV GlowThe Daily ShowSurvivorWWE Smackdown!

Announcements

03/28

2024

No

Comments

American Rust S02E03 Iron Sky 720p AMZN WEB-DL DDP5 1 H 264-NTb
[RR/NF/CU]
Size: 798MB mkv H264 (HIGH) / EAC3  HD  1280x720

American Rust
File Information
[img]http://lookpic.com/cdn/i2/t/0328202415560299-1.jpg[/img]
[img]http://lookpic.com/cdn/i2/t/0328202415560299-2.jpg[/img]
[img]http://lookpic.com/cdn/i2/t/0328202415560299-3.jpg[/img]

General
Unique ID                                : 132671323278513406939898084557440358930 (0x63CF9142DA8D7AD6A2B61C43EF0B1A12)
Complete name                            : American Rust S02E03 Iron Sky 720p AMZN WEB-DL DDP5 1 H 264-NTb.mkv
Format                                   : Matroska
Format version                           : Version 4
File size                                : 799 MiB
Duration                                 : 53 min 14 s
Overall bit rate                         : 2 098 kb/s
Frame rate                               : 23.976 FPS
Writing application                      : mkvmerge v81.0 ('Milliontown') 64-bit
Writing library                          : libebml v1.4.4 + libmatroska v1.7.1

Video
ID                                       : 1
Format                                   : AVC
Format/Info                              : Advanced Video Codec
Format profile                           : [email protected]
Format settings                          : CABAC / 4 Ref Frames
Format settings, CABAC                   : Yes
Format settings, Reference frames        : 4 frames
Codec ID                                 : V_MPEG4/ISO/AVC
Duration                                 : 53 min 14 s
Bit rate mode                            : Constant
Bit rate                                 : 1 455 kb/s
Nominal bit rate                         : 4 000 kb/s
Width                                    : 1 280 pixels
Height                                   : 720 pixels
Display aspect ratio                     : 16:9
Frame rate mode                          : Constant
Frame rate                               : 23.976 (24000/1001) FPS
Color space                              : YUV
Chroma subsampling                       : 4:2:0
Bit depth                                : 8 bits
Scan type                                : Progressive
Bits/(Pixel*Frame)                       : 0.066
Stream size                              : 554 MiB (69%)
Default                                  : Yes
Forced                                   : No
Color range                              : Limited
Color primaries                          : BT.709
Transfer characteristics                 : BT.709
Matrix coefficients                      : BT.709

Audio
ID                                       : 2
Format                                   : E-AC-3
Format/Info                              : Enhanced AC-3
Commercial name                          : Dolby Digital Plus
Codec ID                                 : A_EAC3
Duration                                 : 53 min 14 s
Bit rate mode                            : Constant
Bit rate                                 : 640 kb/s
Channel(s)                               : 6 channels
Channel layout                           : L R C LFE Ls Rs
Sampling rate                            : 48.0 kHz
Frame rate                               : 31.250 FPS (1536 SPF)
Compression mode                         : Lossy
Stream size                              : 244 MiB (31%)
Language                                 : English (US)
Service kind                             : Complete Main
Default                                  : Yes
Forced                                   : No

Text #1
ID                                       : 3
Format                                   : UTF-8
Codec ID                                 : S_TEXT/UTF8
Codec ID/Info                            : UTF-8 Plain Text
Duration                                 : 7 s 883 ms
Bit rate                                 : 89 b/s
Frame rate                               : 0.381 FPS
Count of elements                        : 3
Stream size                              : 88.0 Bytes (0%)
Title                                    : Forced
Language                                 : English (US)
Default                                  : Yes
Forced                                   : Yes

Text #2
ID                                       : 4
Format                                   : UTF-8
Codec ID                                 : S_TEXT/UTF8
Codec ID/Info                            : UTF-8 Plain Text
Duration                                 : 52 min 33 s
Bit rate                                 : 67 b/s
Frame rate                               : 0.254 FPS
Count of elements                        : 800
Stream size                              : 25.9 KiB (0%)
Language                                 : English (US)
Default                                  : No
Forced                                   : No

Text #3
ID                                       : 5
Format                                   : UTF-8
Codec ID                                 : S_TEXT/UTF8
Codec ID/Info                            : UTF-8 Plain Text
Duration                                 : 52 min 33 s
Bit rate                                 : 76 b/s
Frame rate                               : 0.287 FPS
Count of elements                        : 904
Stream size                              : 29.6 KiB (0%)
Title                                    : SDH
Language                                 : English (US)
Default                                  : No
Forced                                   : No

Text #4
ID                                       : 6
Format                                   : UTF-8
Codec ID                                 : S_TEXT/UTF8
Codec ID/Info                            : UTF-8 Plain Text
Duration                                 : 52 min 37 s
Bit rate                                 : 63 b/s
Frame rate                               : 0.224 FPS
Count of elements                        : 706
Stream size                              : 24.4 KiB (0%)
Language                                 : German (DE)
Default                                  : No
Forced                                   : No

Text #5
ID                                       : 7
Format                                   : UTF-8
Codec ID                                 : S_TEXT/UTF8
Codec ID/Info                            : UTF-8 Plain Text
Duration                                 : 52 min 41 s
Bit rate                                 : 57 b/s
Frame rate                               : 0.225 FPS
Count of elements                        : 710
Stream size                              : 22.3 KiB (0%)
Language                                 : Spanish (Latin America)
Default                                  : No
Forced                                   : No

Text #6
ID                                       : 8
Format                                   : UTF-8
Codec ID                                 : S_TEXT/UTF8
Codec ID/Info                            : UTF-8 Plain Text
Duration                                 : 52 min 41 s
Bit rate                                 : 59 b/s
Frame rate                               : 0.218 FPS
Count of elements                        : 688
Stream size                              : 22.8 KiB (0%)
Language                                 : French (CA)
Default                                  : No
Forced                                   : No



Download
File Container: MKV
Video/Audio Codec: H264 (HIGH) EAC3
Video Resolution: 1280x720
Please Login to post a comment.
If you don't have any account, please Register.
  • Subscribe my Feeds
  • Facebook
Encoding Queue:  x264  x265

Latest Episodes

Popular Movies and TV Shows

  • Kung Fu Hustle
  • Licence to Kill
  • Look to the Light
  • Wonderful Precure!
  • Welcome to Wrexham
  • There's Something About Mary
  • Rawhide
  • Doctor Climax
  • Erotic Ghost Story III
  • Love Island
  • The Loud House
  • Beat Bobby Flay
  • The Bold and the Beautiful
  • Vice News Presents: Mass Shooting America
  • Inside Out 2
  • D-Day Hour by Hour
  • WWE NXT
  • Catfish: The TV Show
  • Walker
  • Enter the Clones of Bruce
  • Immaculate
  • I Saw the TV Glow
  • The Daily Show
  • Survivor
  • WWE Smackdown!

Recent Comments

  • waanaabe: Does anyone have season 1 and 2 of "The Mire"? here is just season 3 of this polish series...
  • Rmed:

    Links are dead. Re-upload please?

  • mentalityx:

    Rad bloke.

  • mentalityx:

    Thx bloke.

  • Diggety247:

    BrokenHanded, Try using a DL manager.

  • BrokenHanded: clicknupload does not seem to work for past few days. keep getting an error saying the site is sendi...
  • Bud: Helps if you actually add these to the "Late Night with Seth Meyers" page too...
  • rambaldi70:

    Hy! Right now, my download speed : 1 Mb/s
    this is ok?
    Tx answer

  • Cinque_Persson: At 183 MB this had to be something completely different. In fact it's just the main actors commentin...

Archives