Sign Up   |   Sign In  
ShogunNCISImmaculateNCIS: Hawai'iSweet DreamsThe NeighborhoodBob Hearts AbisholaAll AmericanDune: Part TwoThe Crow: SalvationThe 100th: Billy Joel at Madison Square Garden - The Greatest Arena Run of All TimeThe SympathizerTrackerFamily GuyKiller Fortune TellerMoney TalksStill: A Michael J. Fox MovieThe Great NorthHundreds of BeaversModel HouseWhen Calls the HeartThe Bold and the BeautifulAbba: How They Won EurovisionFalloutBeacon 23

Announcements

03/29

2024

2

Comments

Manhunt 2024 S01E04 The Secret Line 1080p ATVP WEB-DL DDP5 1 H 264-NTb
[RR/NF]
Size: 3.9GB mkv H264 (HIGH) / EAC3  HD  1920x804

Manhunt
File Information
[img]http://lookpic.com/cdn/i2/t/0329202402244512-1.jpg[/img]
[img]http://lookpic.com/cdn/i2/t/0329202402244512-2.jpg[/img]
[img]http://lookpic.com/cdn/i2/t/0329202402244512-3.jpg[/img]

General
Unique ID                                : 58946748509492346488923527031936547792 (0x2C58BB16397B26769E0E99A8F5EC7BD0)
Complete name                            : Manhunt 2024 S01E04 The Secret Line 1080p ATVP WEB-DL DDP5 1 H 264-NTb.mkv
Format                                   : Matroska
Format version                           : Version 4
File size                                : 3.85 GiB
Duration                                 : 50 min 41 s
Overall bit rate                         : 10.9 Mb/s
Frame rate                               : 23.976 FPS
Writing application                      : mkvmerge v81.0 ('Milliontown') 64-bit
Writing library                          : libebml v1.4.4 + libmatroska v1.7.1

Video
ID                                       : 1
Format                                   : AVC
Format/Info                              : Advanced Video Codec
Format profile                           : High@L4
Format settings                          : CABAC / 5 Ref Frames
Format settings, CABAC                   : Yes
Format settings, Reference frames        : 5 frames
Codec ID                                 : V_MPEG4/ISO/AVC
Duration                                 : 50 min 41 s
Bit rate                                 : 10.1 Mb/s
Width                                    : 1 920 pixels
Height                                   : 804 pixels
Display aspect ratio                     : 2.40:1
Frame rate mode                          : Constant
Frame rate                               : 23.976 (24000/1001) FPS
Color space                              : YUV
Chroma subsampling                       : 4:2:0
Bit depth                                : 8 bits
Scan type                                : Progressive
Bits/(Pixel*Frame)                       : 0.273
Stream size                              : 3.58 GiB (93%)
Default                                  : Yes
Forced                                   : No
Color range                              : Limited
Color primaries                          : BT.709
Transfer characteristics                 : BT.709
Matrix coefficients                      : BT.709

Audio
ID                                       : 2
Format                                   : E-AC-3 JOC
Format/Info                              : Enhanced AC-3 with Joint Object Coding
Commercial name                          : Dolby Digital Plus with Dolby Atmos
Codec ID                                 : A_EAC3
Duration                                 : 50 min 41 s
Bit rate mode                            : Constant
Bit rate                                 : 768 kb/s
Channel(s)                               : 6 channels
Channel layout                           : L R C LFE Ls Rs
Sampling rate                            : 48.0 kHz
Frame rate                               : 31.250 FPS (1536 SPF)
Compression mode                         : Lossy
Stream size                              : 278 MiB (7%)
Language                                 : English
Service kind                             : Complete Main
Default                                  : Yes
Forced                                   : No
Complexity index                         : 16
Number of dynamic objects                : 15
Bed channel count                        : 1 channel
Bed channel configuration                : LFE

Text #1
ID                                       : 3
Format                                   : UTF-8
Codec ID                                 : S_TEXT/UTF8
Codec ID/Info                            : UTF-8 Plain Text
Duration                                 : 49 min 13 s
Bit rate                                 : 58 b/s
Frame rate                               : 0.175 FPS
Count of elements                        : 517
Stream size                              : 21.1 KiB (0%)
Language                                 : English
Default                                  : No
Forced                                   : No

Text #2
ID                                       : 4
Format                                   : UTF-8
Codec ID                                 : S_TEXT/UTF8
Codec ID/Info                            : UTF-8 Plain Text
Duration                                 : 49 min 13 s
Bit rate                                 : 64 b/s
Frame rate                               : 0.192 FPS
Count of elements                        : 566
Stream size                              : 23.3 KiB (0%)
Title                                    : SDH
Language                                 : English
Default                                  : No
Forced                                   : No

Text #3
ID                                       : 5
Format                                   : UTF-8
Codec ID                                 : S_TEXT/UTF8
Codec ID/Info                            : UTF-8 Plain Text
Duration                                 : 50 min 21 s
Bit rate                                 : 85 b/s
Frame rate                               : 0.183 FPS
Count of elements                        : 554
Stream size                              : 31.6 KiB (0%)
Language                                 : Arabic
Default                                  : No
Forced                                   : No

Text #4
ID                                       : 6
Format                                   : UTF-8
Codec ID                                 : S_TEXT/UTF8
Codec ID/Info                            : UTF-8 Plain Text
Duration                                 : 50 min 21 s
Bit rate                                 : 98 b/s
Frame rate                               : 0.164 FPS
Count of elements                        : 495
Stream size                              : 36.5 KiB (0%)
Language                                 : Bulgarian
Default                                  : No
Forced                                   : No

Text #5
ID                                       : 7
Format                                   : UTF-8
Codec ID                                 : S_TEXT/UTF8
Codec ID/Info                            : UTF-8 Plain Text
Duration                                 : 50 min 21 s
Bit rate                                 : 53 b/s
Frame rate                               : 0.183 FPS
Count of elements                        : 554
Stream size                              : 19.9 KiB (0%)
Title                                    : Chinese (Simplified)
Language                                 : Chinese (Simplified)
Default                                  : No
Forced                                   : No

Text #6
ID                                       : 8
Format                                   : UTF-8
Codec ID                                 : S_TEXT/UTF8
Codec ID/Info                            : UTF-8 Plain Text
Duration                                 : 50 min 21 s
Bit rate                                 : 51 b/s
Frame rate                               : 0.184 FPS
Count of elements                        : 555
Stream size                              : 18.9 KiB (0%)
Title                                    : Chinese (Traditional)
Language                                 : Chinese (Traditional)
Default                                  : No
Forced                                   : No

Text #7
ID                                       : 9
Format                                   : UTF-8
Codec ID                                 : S_TEXT/UTF8
Codec ID/Info                            : UTF-8 Plain Text
Duration                                 : 50 min 20 s
Bit rate                                 : 58 b/s
Frame rate                               : 0.171 FPS
Count of elements                        : 517
Stream size                              : 21.4 KiB (0%)
Language                                 : Czech
Default                                  : No
Forced                                   : No

Text #8
ID                                       : 10
Format                                   : UTF-8
Codec ID                                 : S_TEXT/UTF8
Codec ID/Info                            : UTF-8 Plain Text
Duration                                 : 50 min 21 s
Bit rate                                 : 60 b/s
Frame rate                               : 0.166 FPS
Count of elements                        : 501
Stream size                              : 22.1 KiB (0%)
Language                                 : Danish
Default                                  : No
Forced                                   : No

Text #9
ID                                       : 11
Format                                   : UTF-8
Codec ID                                 : S_TEXT/UTF8
Codec ID/Info                            : UTF-8 Plain Text
Duration                                 : 49 min 35 s
Bit rate                                 : 66 b/s
Frame rate                               : 0.192 FPS
Count of elements                        : 570
Stream size                              : 24.2 KiB (0%)
Language                                 : German
Default                                  : No
Forced                                   : No

Text #10
ID                                       : 12
Format                                   : UTF-8
Codec ID                                 : S_TEXT/UTF8
Codec ID/Info                            : UTF-8 Plain Text
Duration                                 : 50 min 21 s
Bit rate                                 : 109 b/s
Frame rate                               : 0.179 FPS
Count of elements                        : 542
Stream size                              : 40.5 KiB (0%)
Language                                 : Greek
Default                                  : No
Forced                                   : No

Text #11
ID                                       : 13
Format                                   : UTF-8
Codec ID                                 : S_TEXT/UTF8
Codec ID/Info                            : UTF-8 Plain Text
Duration                                 : 50 min 20 s
Bit rate                                 : 62 b/s
Frame rate                               : 0.190 FPS
Count of elements                        : 573
Stream size                              : 23.2 KiB (0%)
Title                                    : Spanish (Latin America)
Language                                 : Spanish (Latin America)
Default                                  : No
Forced                                   : No

Text #12
ID                                       : 14
Format                                   : UTF-8
Codec ID                                 : S_TEXT/UTF8
Codec ID/Info                            : UTF-8 Plain Text
Duration                                 : 50 min 20 s
Bit rate                                 : 61 b/s
Frame rate                               : 0.187 FPS
Count of elements                        : 564
Stream size                              : 22.5 KiB (0%)
Title                                    : Spanish (Spain)
Language                                 : Spanish (ES)
Default                                  : No
Forced                                   : No

Text #13
ID                                       : 15
Format                                   : UTF-8
Codec ID                                 : S_TEXT/UTF8
Codec ID/Info                            : UTF-8 Plain Text
Duration                                 : 50 min 20 s
Bit rate                                 : 56 b/s
Frame rate                               : 0.170 FPS
Count of elements                        : 513
Stream size                              : 20.9 KiB (0%)
Language                                 : Estonian
Default                                  : No
Forced                                   : No

Text #14
ID                                       : 16
Format                                   : UTF-8
Codec ID                                 : S_TEXT/UTF8
Codec ID/Info                            : UTF-8 Plain Text
Duration                                 : 50 min 20 s
Bit rate                                 : 51 b/s
Frame rate                               : 0.167 FPS
Count of elements                        : 505
Stream size                              : 19.1 KiB (0%)
Language                                 : Finnish
Default                                  : No
Forced                                   : No

Text #15
ID                                       : 17
Format                                   : UTF-8
Codec ID                                 : S_TEXT/UTF8
Codec ID/Info                            : UTF-8 Plain Text
Duration                                 : 50 min 18 s
Bit rate                                 : 58 b/s
Frame rate                               : 0.218 FPS
Count of elements                        : 657
Stream size                              : 21.6 KiB (0%)
Title                                    : French (Canada)
Language                                 : French (CA)
Default                                  : No
Forced                                   : No

Text #16
ID                                       : 18
Format                                   : UTF-8
Codec ID                                 : S_TEXT/UTF8
Codec ID/Info                            : UTF-8 Plain Text
Duration                                 : 50 min 18 s
Bit rate                                 : 58 b/s
Frame rate                               : 0.217 FPS
Count of elements                        : 656
Stream size                              : 21.6 KiB (0%)
Title                                    : French (France)
Language                                 : French (FR)
Default                                  : No
Forced                                   : No

Text #17
ID                                       : 19
Format                                   : UTF-8
Codec ID                                 : S_TEXT/UTF8
Codec ID/Info                            : UTF-8 Plain Text
Duration                                 : 50 min 21 s
Bit rate                                 : 83 b/s
Frame rate                               : 0.184 FPS
Count of elements                        : 555
Stream size                              : 30.7 KiB (0%)
Language                                 : Hebrew
Default                                  : No
Forced                                   : No

Text #18
ID                                       : 20
Format                                   : UTF-8
Codec ID                                 : S_TEXT/UTF8
Codec ID/Info                            : UTF-8 Plain Text
Duration                                 : 50 min 21 s
Bit rate                                 : 166 b/s
Frame rate                               : 0.184 FPS
Count of elements                        : 555
Stream size                              : 61.5 KiB (0%)
Language                                 : Hindi
Default                                  : No
Forced                                   : No

Text #19
ID                                       : 21
Format                                   : UTF-8
Codec ID                                 : S_TEXT/UTF8
Codec ID/Info                            : UTF-8 Plain Text
Duration                                 : 50 min 20 s
Bit rate                                 : 62 b/s
Frame rate                               : 0.179 FPS
Count of elements                        : 542
Stream size                              : 23.0 KiB (0%)
Language                                 : Hungarian
Default                                  : No
Forced                                   : No

Text #20
ID                                       : 22
Format                                   : UTF-8
Codec ID                                 : S_TEXT/UTF8
Codec ID/Info                            : UTF-8 Plain Text
Duration                                 : 50 min 20 s
Bit rate                                 : 62 b/s
Frame rate                               : 0.182 FPS
Count of elements                        : 551
Stream size                              : 23.0 KiB (0%)
Language                                 : Indonesian
Default                                  : No
Forced                                   : No

Text #21
ID                                       : 23
Format                                   : UTF-8
Codec ID                                 : S_TEXT/UTF8
Codec ID/Info                            : UTF-8 Plain Text
Duration                                 : 50 min 10 s
Bit rate                                 : 64 b/s
Frame rate                               : 0.202 FPS
Count of elements                        : 608
Stream size                              : 23.8 KiB (0%)
Language                                 : Italian
Default                                  : No
Forced                                   : No

Text #22
ID                                       : 24
Format                                   : UTF-8
Codec ID                                 : S_TEXT/UTF8
Codec ID/Info                            : UTF-8 Plain Text
Duration                                 : 50 min 18 s
Bit rate                                 : 49 b/s
Frame rate                               : 0.199 FPS
Count of elements                        : 600
Stream size                              : 18.1 KiB (0%)
Language                                 : Japanese
Default                                  : No
Forced                                   : No

Text #23
ID                                       : 25
Format                                   : UTF-8
Codec ID                                 : S_TEXT/UTF8
Codec ID/Info                            : UTF-8 Plain Text
Duration                                 : 50 min 21 s
Bit rate                                 : 70 b/s
Frame rate                               : 0.184 FPS
Count of elements                        : 557
Stream size                              : 26.0 KiB (0%)
Language                                 : Korean
Default                                  : No
Forced                                   : No

Text #24
ID                                       : 26
Format                                   : UTF-8
Codec ID                                 : S_TEXT/UTF8
Codec ID/Info                            : UTF-8 Plain Text
Duration                                 : 50 min 21 s
Bit rate                                 : 62 b/s
Frame rate                               : 0.183 FPS
Count of elements                        : 554
Stream size                              : 23.0 KiB (0%)
Language                                 : Lithuanian
Default                                  : No
Forced                                   : No

Text #25
ID                                       : 27
Format                                   : UTF-8
Codec ID                                 : S_TEXT/UTF8
Codec ID/Info                            : UTF-8 Plain Text
Duration                                 : 50 min 21 s
Bit rate                                 : 63 b/s
Frame rate                               : 0.181 FPS
Count of elements                        : 546
Stream size                              : 23.3 KiB (0%)
Language                                 : Latvian
Default                                  : No
Forced                                   : No

Text #26
ID                                       : 28
Format                                   : UTF-8
Codec ID                                 : S_TEXT/UTF8
Codec ID/Info                            : UTF-8 Plain Text
Duration                                 : 50 min 20 s
Bit rate                                 : 61 b/s
Frame rate                               : 0.182 FPS
Count of elements                        : 549
Stream size                              : 22.8 KiB (0%)
Language                                 : Malay
Default                                  : No
Forced                                   : No

Text #27
ID                                       : 29
Format                                   : UTF-8
Codec ID                                 : S_TEXT/UTF8
Codec ID/Info                            : UTF-8 Plain Text
Duration                                 : 50 min 20 s
Bit rate                                 : 54 b/s
Frame rate                               : 0.156 FPS
Count of elements                        : 471
Stream size                              : 20.2 KiB (0%)
Language                                 : Dutch
Default                                  : No
Forced                                   : No

Text #28
ID                                       : 30
Format                                   : UTF-8
Codec ID                                 : S_TEXT/UTF8
Codec ID/Info                            : UTF-8 Plain Text
Duration                                 : 50 min 19 s
Bit rate                                 : 54 b/s
Frame rate                               : 0.155 FPS
Count of elements                        : 467
Stream size                              : 19.9 KiB (0%)
Language                                 : Norwegian
Default                                  : No
Forced                                   : No

Text #29
ID                                       : 31
Format                                   : UTF-8
Codec ID                                 : S_TEXT/UTF8
Codec ID/Info                            : UTF-8 Plain Text
Duration                                 : 50 min 20 s
Bit rate                                 : 58 b/s
Frame rate                               : 0.181 FPS
Count of elements                        : 546
Stream size                              : 21.6 KiB (0%)
Language                                 : Polish
Default                                  : No
Forced                                   : No

Text #30
ID                                       : 32
Format                                   : UTF-8
Codec ID                                 : S_TEXT/UTF8
Codec ID/Info                            : UTF-8 Plain Text
Duration                                 : 50 min 20 s
Bit rate                                 : 59 b/s
Frame rate                               : 0.182 FPS
Count of elements                        : 551
Stream size                              : 22.0 KiB (0%)
Title                                    : Portuguese
Language                                 : Portuguese
Default                                  : No
Forced                                   : No

Text #31
ID                                       : 33
Format                                   : UTF-8
Codec ID                                 : S_TEXT/UTF8
Codec ID/Info                            : UTF-8 Plain Text
Duration                                 : 50 min 20 s
Bit rate                                 : 57 b/s
Frame rate                               : 0.173 FPS
Count of elements                        : 523
Stream size                              : 21.1 KiB (0%)
Title                                    : Portuguese (Brazil)
Language                                 : Portuguese (BR)
Default                                  : No
Forced                                   : No

Text #32
ID                                       : 34
Format                                   : UTF-8
Codec ID                                 : S_TEXT/UTF8
Codec ID/Info                            : UTF-8 Plain Text
Duration                                 : 50 min 21 s
Bit rate                                 : 100 b/s
Frame rate                               : 0.181 FPS
Count of elements                        : 547
Stream size                              : 36.9 KiB (0%)
Language                                 : Russian
Default                                  : No
Forced                                   : No

Text #33
ID                                       : 35
Format                                   : UTF-8
Codec ID                                 : S_TEXT/UTF8
Codec ID/Info                            : UTF-8 Plain Text
Duration                                 : 50 min 20 s
Bit rate                                 : 58 b/s
Frame rate                               : 0.181 FPS
Count of elements                        : 547
Stream size                              : 21.5 KiB (0%)
Language                                 : Slovak
Default                                  : No
Forced                                   : No

Text #34
ID                                       : 36
Format                                   : UTF-8
Codec ID                                 : S_TEXT/UTF8
Codec ID/Info                            : UTF-8 Plain Text
Duration                                 : 50 min 21 s
Bit rate                                 : 50 b/s
Frame rate                               : 0.157 FPS
Count of elements                        : 473
Stream size                              : 18.8 KiB (0%)
Language                                 : Slovenian
Default                                  : No
Forced                                   : No

Text #35
ID                                       : 37
Format                                   : UTF-8
Codec ID                                 : S_TEXT/UTF8
Codec ID/Info                            : UTF-8 Plain Text
Duration                                 : 50 min 20 s
Bit rate                                 : 60 b/s
Frame rate                               : 0.174 FPS
Count of elements                        : 525
Stream size                              : 22.4 KiB (0%)
Language                                 : Swedish
Default                                  : No
Forced                                   : No

Text #36
ID                                       : 38
Format                                   : UTF-8
Codec ID                                 : S_TEXT/UTF8
Codec ID/Info                            : UTF-8 Plain Text
Duration                                 : 50 min 21 s
Bit rate                                 : 212 b/s
Frame rate                               : 0.184 FPS
Count of elements                        : 555
Stream size                              : 78.3 KiB (0%)
Language                                 : Tamil
Default                                  : No
Forced                                   : No

Text #37
ID                                       : 39
Format                                   : UTF-8
Codec ID                                 : S_TEXT/UTF8
Codec ID/Info                            : UTF-8 Plain Text
Duration                                 : 50 min 21 s
Bit rate                                 : 180 b/s
Frame rate                               : 0.184 FPS
Count of elements                        : 555
Stream size                              : 66.6 KiB (0%)
Language                                 : Telugu
Default                                  : No
Forced                                   : No

Text #38
ID                                       : 40
Format                                   : UTF-8
Codec ID                                 : S_TEXT/UTF8
Codec ID/Info                            : UTF-8 Plain Text
Duration                                 : 50 min 21 s
Bit rate                                 : 129 b/s
Frame rate                               : 0.184 FPS
Count of elements                        : 555
Stream size                              : 47.9 KiB (0%)
Language                                 : Thai
Default                                  : No
Forced                                   : No

Text #39
ID                                       : 41
Format                                   : UTF-8
Codec ID                                 : S_TEXT/UTF8
Codec ID/Info                            : UTF-8 Plain Text
Duration                                 : 50 min 20 s
Bit rate                                 : 61 b/s
Frame rate                               : 0.181 FPS
Count of elements                        : 546
Stream size                              : 22.8 KiB (0%)
Language                                 : Turkish
Default                                  : No
Forced                                   : No

Text #40
ID                                       : 42
Format                                   : UTF-8
Codec ID                                 : S_TEXT/UTF8
Codec ID/Info                            : UTF-8 Plain Text
Duration                                 : 50 min 21 s
Bit rate                                 : 93 b/s
Frame rate                               : 0.183 FPS
Count of elements                        : 554
Stream size                              : 34.6 KiB (0%)
Language                                 : Ukrainian
Default                                  : No
Forced                                   : No

Text #41
ID                                       : 43
Format                                   : UTF-8
Codec ID                                 : S_TEXT/UTF8
Codec ID/Info                            : UTF-8 Plain Text
Duration                                 : 50 min 21 s
Bit rate                                 : 82 b/s
Frame rate                               : 0.183 FPS
Count of elements                        : 554
Stream size                              : 30.6 KiB (0%)
Language                                 : Vietnamese
Default                                  : No
Forced                                   : No

Text #42
ID                                       : 44
Format                                   : UTF-8
Codec ID                                 : S_TEXT/UTF8
Codec ID/Info                            : UTF-8 Plain Text
Duration                                 : 50 min 21 s
Bit rate                                 : 47 b/s
Frame rate                               : 0.184 FPS
Count of elements                        : 555
Stream size                              : 17.6 KiB (0%)
Title                                    : Chinese (Traditional)
Language                                 : Chinese (Traditional)
Default                                  : No
Forced                                   : No

Menu
00:00:00.000                             : en:Chapter 1
00:03:32.791                             : en:Intro
00:04:37.875                             : en:Chapter 2



Download
File Container: MKV
Video/Audio Codec: H264 (HIGH) EAC3
Video Resolution: 1920x804

2 Responses to "[RR/NF] Manhunt 2024 S01E04 The Secret Line 1080p ATVP WEB-DL DDP5 1 H 264-NTb (3.9GB)"
03/29/24
04:25:00
ReadyPlayerOne

Thank you!

03/29/24
05:37:36
blueybaby

Manhunt 2024 S01E04 The Secret Line 1080p ATVP WEB-DL DDP5 1 H 264-NTb
3.85 GB
======================================================
https://nitroflare.com/view/A5DCF0A9C58E00D/Manhunt_2024_S01E04_The_Secret_Line_1080p_ATVP_WEB-DL_DDP5_1_H_264-NTb.mkv

https://clicknupload.space/2x0q3a68pc40

https://turbobit.net/lnn10gmpokt6.html

https://rapidgator.net/file/b9b7f4e807eb6467e64a1dea207a3ff9

Manhunt 2024 S01E04 The Secret Line 720p ATVP WEB-DL DDP5 1 H 264-NTb
1.29 GB
========================================================
https://turbobit.net/onne0inzjb1r.html

https://rapidgator.net/file/b9b7f4e807eb6467e64a1dea207a3ff9

https://nitroflare.com/view/56656E9C484B876/Manhunt_2024_S01E04_The_Secret_Line_720p_ATVP_WEB-DL_DDP5_1_H_264-NTb.mkv

https://clicknupload.space/lromx63j9upr

Manhunt.2024.S01E04.WEBRip.x264-XEN0N
===================================
https://turbobit.net/he1uhof9sai8.html

https://rapidgator.net/file/cc96c779b511ed19b75315fcf4bcab95

https://nitroflare.com/view/C6FCEEBFDBDD23F/Manhunt.2024.S01E04.WEBRip.x264-XEN0N.mkv

https://clicknupload.space/j99sazp179fz

Please Login to post a comment.
If you don't have any account, please Register.
  • Subscribe my Feeds
  • Facebook
Encoding Queue:  x264  x265

Latest Episodes

Popular Movies and TV Shows

  • Shogun
  • NCIS
  • Immaculate
  • NCIS: Hawai'i
  • Sweet Dreams
  • The Neighborhood
  • Bob Hearts Abishola
  • All American
  • Dune: Part Two
  • The Crow: Salvation
  • The 100th: Billy Joel at Madison Square Garden - The Greatest Arena Run of All Time
  • The Sympathizer
  • Tracker
  • Family Guy
  • Killer Fortune Teller
  • Money Talks
  • Still: A Michael J. Fox Movie
  • The Great North
  • Hundreds of Beavers
  • Model House
  • When Calls the Heart
  • The Bold and the Beautiful
  • Abba: How They Won Eurovision
  • Fallout
  • Beacon 23

Recent Comments

  • kellym2: Why am I getting "Server is in maintenance mode" on some episodes of a series and not on o...
  • Bud:

    Are you ever going to put up Thursday's episode with Liev Schreiber?

  • alp-engin:

    When will that maintenance be over? Please...

  • mentalityx:

    Rad bloke

  • DownloadHostInspector:

    so far these RMTeam uploads always have a working link. DownloadHostInspector approved!

  • DownloadHostInspector:

    ah yes, this upload has a host that works. clicknupload. DownloadHostInspector approved!

  • DownloadHostInspector: Why are all the download hosts trash? none of them let you download it
  • Qua4ratic:

    clicknupload link plz

  • ppoo:

    Please, can you add "Real Time with Bill Maher S22E11" ??

  • theahtisham:

    Kindly upload Ep. 3 and 4 as well.

Archives